<?xml version="1.0" standalone="no"?>
<!DOCTYPE svg PUBLIC "-//W3C//DTD SVG 1.1//EN" "http://www.w3.org/Graphics/SVG/1.1/DTD/svg11.dtd" >
<svg xmlns="http://www.w3.org/2000/svg">
<metadata></metadata>
<defs>
<font id="borgia_proregular" horiz-adv-x="1079" >
<font-face units-per-em="2048" ascent="1479" descent="-569" />
<missing-glyph horiz-adv-x="512" />
<glyph unicode="&#xfb01;" horiz-adv-x="1232" d="M37 0v41h24q102 0 127 35q17 20 20 45t3 151v502h-168v37q28 3 84.5 22.5t83.5 36.5q4 151 33.5 236.5t103.5 169.5q88 97 192 149t210 52q131 0 217 -66q47 -34 47 -55q0 -19 -37 -53.5t-57 -34.5q-17 0 -41 24q-110 101 -230 101q-75 0 -144.5 -47t-107.5 -123 q-21 -43 -28 -100t-7 -203v-50h275l14 -96h-289v-502q0 -109 3.5 -137.5t17.5 -52.5q15 -23 37.5 -30t83.5 -9l86 -2v-41h-553zM723 0v41h8q53 0 76 9t39 32q19 25 23.5 56t4.5 134v404q0 44 -20 61t-98 37v37l229 94h35v-633q0 -123 2.5 -146.5t17.5 -43.5q15 -23 41 -32 t80 -9h23v-41h-461z" />
<glyph unicode="&#xfb02;" horiz-adv-x="1116" d="M37 774v37l147 59q3 130 25 211t74 154q69 97 166 150t204 53q14 0 43.5 -4.5t61.5 -6.5l33 -2q57 -3 100 52h47v-1203q0 -124 2.5 -148t17.5 -44q15 -23 41 -32t80 -9h19v-41h-471v41h14q103 0 127 35q17 21 21 53.5t4 144.5v500h-463v-500q0 -124 2.5 -148t17.5 -44 q27 -41 123 -41h21v-41h-443v41q53 5 74.5 11.5t34.5 23.5q17 23 20.5 55t3.5 143v500h-147zM330 870h463v402q-54 40 -115 63t-111 23q-75 0 -131.5 -42.5t-79.5 -117.5q-26 -82 -26 -297v-31z" />
<glyph unicode="&#xfb03;" horiz-adv-x="1703" d="M37 0v41q62 3 86 9.5t39 25.5q17 23 20.5 52.5t3.5 145.5v500h-149v37q57 11 149 59q3 119 25.5 188.5t83.5 145.5q77 96 169.5 147.5t188.5 51.5q86 0 154.5 -33t97.5 -88q75 92 164 141.5t180 49.5q76 0 156 -35.5t80 -69.5q0 -19 -28 -61.5t-40 -42.5q-8 0 -28 18 q-109 92 -232 92q-78 0 -138.5 -52t-80.5 -138q-9 -35 -10.5 -68.5t-1.5 -171.5v-74h170l24 -96h-194v-500q0 -124 2.5 -148t17.5 -44q15 -23 41.5 -32t81.5 -9h12v-41h-460v41h8q103 0 127 35q17 21 20.5 52.5t3.5 145.5v500h-448v-500q0 -123 2.5 -146.5t17.5 -45.5 q15 -23 41.5 -32t81.5 -9h8v-41h-446zM332 870h448v19q0 123 11.5 177t48.5 120q-32 9 -84 49q-60 47 -107 66.5t-102 19.5q-57 0 -107 -36t-78 -97q-20 -42 -25 -89t-5 -190v-39zM1202 778v35l283 92h35v-735q0 -71 30.5 -100.5t104.5 -28.5v-41h-436v41h8q96 0 123 35 q17 23 20.5 54t3.5 144v424q-3 28 -16 37q-29 11 -82 25z" />
<glyph unicode="&#xfb04;" horiz-adv-x="1665" d="M37 0v41q55 3 79 10.5t38 24.5q15 22 18.5 54.5t3.5 143.5v500h-139v35q91 26 139 61q10 126 32.5 189.5t82.5 140.5q78 99 172 152t192 53q89 0 162 -37.5t96 -95.5q43 68 146 121q94 47 205 47q3 0 27 -1t38 -1h31q103 0 123 59h37v-1327q0 -69 29 -99t98 -30v-41h-430 v41h6q102 0 127 35q17 21 20.5 52.5t3.5 145.5v500h-450v-502q0 -123 2.5 -146.5t17.5 -43.5q15 -23 41.5 -32t81.5 -9h12v-41h-461v41h9q102 0 127 35q17 21 20.5 52.5t3.5 145.5v500h-456v-502q0 -123 2.5 -146.5t17.5 -43.5q15 -23 41.5 -32t81.5 -9h18v-41h-446z M322 870h456q-2 89 18 174.5t56 141.5q-40 8 -102 55q-66 49 -103.5 64.5t-91.5 15.5q-137 0 -195 -131q-23 -49 -30.5 -106t-7.5 -177v-37zM924 870h450v408l-92 41q-79 35 -139 35q-57 0 -107.5 -37.5t-79.5 -102.5q-21 -45 -26.5 -95t-5.5 -187v-62z" />
<glyph horiz-adv-x="2048" />
<glyph horiz-adv-x="2048" />
<glyph unicode="&#xd;" horiz-adv-x="2048" />
<glyph unicode=" "  horiz-adv-x="512" />
<glyph unicode="&#x09;" horiz-adv-x="512" />
<glyph unicode="&#xa0;" horiz-adv-x="512" />
<glyph unicode="!" horiz-adv-x="571" d="M172 80q0 43 33 72.5t80 29.5q50 0 82 -29.5t32 -74.5q0 -46 -31.5 -75.5t-82.5 -29.5q-49 0 -81 30.5t-32 76.5zM180 1331q0 22 10.5 28.5t45.5 6.5h98q35 0 45 -7t10 -30q0 -2 -0.5 -4.5t-1.5 -11t-2 -21.5l-82 -964h-35l-86 964q-2 33 -2 39z" />
<glyph unicode="&#x22;" horiz-adv-x="563" d="M82 1262q0 55 21 89.5t53 34.5q34 0 55.5 -34t21.5 -88q0 -18 -8 -84l-45 -334h-45l-47 334q-6 44 -6 82zM330 1262q0 55 20.5 89.5t52.5 34.5q35 0 56.5 -34t21.5 -88q0 -35 -8 -84l-47 -334h-43l-47 334q-6 34 -6 82z" />
<glyph unicode="#" d="M63 469l11 72h213l45 311h-215l10 72h215l61 442h78l-61 -442h313l62 442h79l-63 -442h203l-10 -72h-203l-43 -311h203l-11 -72h-202l-66 -469h-80l66 469h-314l-65 -469h-78l65 469h-213zM365 541h313l45 311h-313z" />
<glyph unicode="$" d="M94 225q0 19 10.5 36.5t27.5 28.5t36 11q27 0 46 -20t36 -66q20 -56 33.5 -81t33.5 -44t66 -51v629q-24 19 -69.5 53t-57.5 43q-54 40 -87.5 105.5t-33.5 131.5q0 98 67 175.5t181 111.5v144h41v-136q47 7 90 7q58 0 88 -9v138h41v-144q121 -34 189.5 -85.5t68.5 -108.5 q0 -28 -19 -48t-46 -20q-25 0 -45 15.5t-46 54.5q-45 69 -102 121v-508q3 -3 12 -9q110 -58 219 -170q43 -44 61.5 -91t18.5 -113q0 -123 -82 -213t-229 -127v-209h-41v203q-51 -7 -92 -7q-42 0 -86 7v-203h-41v209q-130 37 -188 82q-45 34 -73 77.5t-28 79.5zM254 1075 q0 -54 31 -101.5t98 -96.5v370q-57 -19 -93 -67t-36 -105zM424 25q37 -13 102 -13q55 0 76 8v517q-15 12 -78.5 48.5t-99.5 59.5v-620zM424 848q41 -35 106 -72q8 -5 17 -10l13.5 -7.5t6.5 -4.5q5 -2 35 -23v508q-14 9 -52 17t-69 8q-22 0 -57 -7v-409zM643 31q61 28 100 63 t58.5 79t19.5 99q0 93 -76 166q-54 42 -102 74v-481z" />
<glyph unicode="%" horiz-adv-x="1894" d="M68 967q0 175 101.5 300.5t242.5 125.5q142 0 242 -126t100 -306q0 -183 -100.5 -312t-241.5 -129q-95 0 -174 59t-124.5 162t-45.5 226zM190 965q0 -98 14.5 -184t37.5 -132q25 -46 70.5 -73t97.5 -27q55 0 95 23t64 60t38 92.5t19 111t5 125.5q0 94 -14 177.5 t-37 127.5q-25 45 -70.5 71.5t-97.5 26.5q-54 0 -94.5 -22t-64.5 -57.5t-38.5 -89t-19.5 -108t-5 -122.5zM369 -59l1067 1495h90l-1067 -1495h-90zM1141 420q0 177 101.5 302.5t242.5 125.5q143 0 242.5 -126.5t99.5 -307.5q0 -183 -100.5 -312t-241.5 -129q-95 0 -174 59 t-124.5 162t-45.5 226zM1264 418q0 -98 14 -184t37 -132q25 -46 70.5 -73t97.5 -27q55 0 95 23t64 60t38 92.5t19 111t5 125.5q0 95 -14 179t-37 128q-25 45 -70.5 71.5t-97.5 26.5q-60 0 -106.5 -30.5t-71.5 -86.5q-19 -45 -31 -123.5t-12 -160.5z" />
<glyph unicode="&#x26;" horiz-adv-x="1601" d="M90 332q0 109 57.5 192t178.5 146q58 32 151 71q-48 40 -83.5 89t-55 100t-19.5 98q0 114 82.5 184t216.5 70q81 0 145 -27t100 -75.5t36 -110.5q0 -75 -63 -145.5t-185 -132.5q116 -84 205 -175t176 -213q44 47 110.5 142.5t115.5 182t49 110.5q0 16 -10.5 24.5t-36 13 t-74.5 5.5v39h387v-39q-79 -4 -108 -9t-54 -16q-15 -8 -31.5 -28t-42.5 -62t-32 -51q-50 -87 -127 -197t-121 -156q35 -51 88 -145q58 -104 93 -138t83 -34q60 0 172 74l18 -35q-144 -115 -268 -115q-86 0 -135.5 38t-108.5 147q-25 48 -51 88q-121 -130 -253 -201.5 t-251 -71.5q-148 0 -251 105.5t-103 257.5zM270 358q0 -124 74 -202t193 -78q95 0 206.5 58.5t182.5 144.5q-79 127 -174.5 226.5t-243.5 207.5q-124 -85 -181 -170.5t-57 -186.5zM459 1081q0 -141 162 -266q3 3 9 6t7 4q129 85 129 228q0 86 -44 136t-118 50 q-33 0 -60.5 -11t-46 -31.5t-28.5 -50t-10 -65.5z" />
<glyph unicode="'" horiz-adv-x="315" d="M82 1262q0 55 21 89.5t53 34.5q34 0 55.5 -34t21.5 -88q0 -18 -8 -84l-45 -334h-45l-47 334q-6 44 -6 82z" />
<glyph unicode="(" horiz-adv-x="663" d="M160 485q0 186 43.5 345t140.5 325q115 192 209 291l61 -53q-106 -112 -211 -330q-65 -135 -93.5 -271.5t-28.5 -306.5q0 -182 34 -325.5t113 -298.5q92 -179 186 -281l-61 -53q-113 116 -236 338q-157 286 -157 620z" />
<glyph unicode=")" horiz-adv-x="663" d="M51 -420q102 108 209 330q66 137 95.5 272.5t29.5 302.5q0 183 -33.5 326.5t-113.5 298.5q-93 181 -187 283l62 53q119 -129 235 -338q158 -283 158 -623q0 -186 -44.5 -343.5t-142.5 -323.5q-109 -186 -206 -291z" />
<glyph unicode="*" d="M37 1069l18 61l379 -47l76 373h65l68 -373l379 47l20 -61l-335 -182l165 -348l-59 -39l-274 254l-273 -254l-55 39l164 348z" />
<glyph unicode="+" d="M88 666v67h418v397h67v-397h416v-67h-416v-398h-67v398h-418z" />
<glyph unicode="," horiz-adv-x="571" d="M174 72q0 46 34 78t85 32q66 0 109.5 -52.5t43.5 -131.5q0 -101 -67.5 -191t-175.5 -133l-15 41q80 46 124 103.5t44 115.5q0 48 -28 48q-1 0 -27 -5.5t-35 -5.5q-38 0 -65 30t-27 71z" />
<glyph unicode="-" horiz-adv-x="870" d="M72 358v148h716v-148h-716z" />
<glyph unicode="." horiz-adv-x="571" d="M172 80q0 43 33 72.5t80 29.5q50 0 82 -29.5t32 -74.5q0 -46 -31.5 -75.5t-82.5 -29.5q-49 0 -81 30.5t-32 76.5z" />
<glyph unicode="/" horiz-adv-x="618" d="M2 -489l438 1939h84l-440 -1939h-82z" />
<glyph unicode="0" d="M82 694q0 152 41 289.5t117 241.5q130 176 299 176q172 0 299 -176q157 -219 157 -541q0 -317 -157 -539q-126 -176 -299 -176t-299 176q-158 223 -158 549zM246 692q0 -163 18 -303t49 -213q34 -79 94 -123.5t132 -44.5q79 0 141 51.5t94 143.5q26 73 41.5 206.5 t15.5 276.5q0 158 -18 298.5t-49 211.5q-34 77 -93.5 121.5t-131.5 44.5q-79 0 -141.5 -51.5t-94.5 -143.5q-25 -72 -41 -206t-16 -269z" />
<glyph unicode="1" d="M197 1075q80 53 205.5 166t156.5 160h76v-1284q0 -46 17.5 -61t74.5 -15h113v-41h-553v41h84h50t32 6t21.5 10.5t9.5 23.5t5 35.5v55.5v1053q-47 -42 -135.5 -101t-138.5 -80z" />
<glyph unicode="2" d="M68 0v35q83 108 403 428q295 295 295 518q0 125 -84 210t-207 85q-117 0 -212.5 -82t-133.5 -215h-35q22 189 144.5 305.5t300.5 116.5q173 0 289 -110.5t116 -276.5q0 -163 -104 -291q-11 -14 -18 -22.5t-19 -20.5t-18.5 -18t-27.5 -24t-36 -30.5t-53 -44.5t-70 -59 q-109 -90 -164 -141.5t-186 -185.5q-26 -27 -41 -42h512q105 0 139.5 9.5t56.5 43.5q23 42 37 121h35l-43 -309h-876z" />
<glyph unicode="3" d="M78 127q0 29 20.5 51.5t48.5 22.5q24 0 48.5 -14t83.5 -62q71 -57 112 -76.5t92 -19.5q129 0 223.5 119t94.5 280q0 129 -69.5 217t-170.5 88q-77 0 -153 -61l-23 33q86 61 164 139q76 75 108.5 130t32.5 111q0 83 -63 143t-152 60q-85 0 -166.5 -59t-128.5 -156l-39 14 q56 143 167 228.5t241 85.5q123 0 205 -70t82 -176q0 -84 -59 -164t-171 -147h29q139 0 234.5 -104.5t95.5 -256.5q0 -100 -46 -195t-121.5 -164.5t-178.5 -112t-211 -42.5q-132 0 -231 47.5t-99 110.5z" />
<glyph unicode="4" d="M80 399v50l647 952h61v-893h222v-109h-222v-430h-145v430h-563zM182 508h461v682z" />
<glyph unicode="5" d="M104 109q0 28 21.5 47.5t52.5 19.5t62 -18.5t84 -65.5q75 -72 151 -72q121 0 211 111t90 260t-93 248.5t-232 99.5q-129 0 -236 -80l-20 15l30 698h469q75 0 91 4t26 25h41l-25 -170h-557l-16 -397q104 55 238 55q184 0 316 -133t132 -318q0 -199 -148 -334t-366 -135 q-134 0 -228 41t-94 99z" />
<glyph unicode="6" d="M119 543q0 304 197.5 534t537.5 324l25 -33q-257 -104 -396 -269t-176 -409q90 69 160 98t149 29q161 0 275.5 -118t114.5 -285q0 -183 -127 -314t-304 -131q-201 0 -328.5 161t-127.5 413zM283 498q0 -226 80.5 -358t218.5 -132q120 0 190 103t70 280q0 169 -70.5 272 t-187.5 103q-121 0 -291 -133q0 -4 -2 -10v-5q-8 -44 -8 -120z" />
<glyph unicode="7" d="M84 1096l16 270h871v-45l-537 -1352h-121l531 1256h-555q-41 0 -61 -0.5t-41.5 -5.5t-29 -11t-16.5 -23.5t-12 -35t-8 -53.5h-37z" />
<glyph unicode="8" d="M111 330q0 231 319 360q-155 69 -228 155t-73 199q0 146 118.5 251.5t284.5 105.5q164 0 280 -93t116 -225q0 -205 -287 -321q172 -77 250 -169.5t78 -219.5q0 -170 -124.5 -287t-307.5 -117q-178 0 -302 105t-124 256zM250 336q0 -141 83 -234.5t206 -93.5t206.5 87.5 t83.5 215.5q0 77 -32.5 131.5t-110.5 108.5q-95 67 -213 119l-12 -6q-100 -50 -155.5 -137.5t-55.5 -190.5zM258 1114q0 -74 36 -126.5t124 -106.5q95 -61 190 -99l8 4t5 2q82 49 128 128.5t46 170.5q0 118 -75.5 196.5t-189.5 78.5q-115 0 -193.5 -72.5t-78.5 -175.5z" />
<glyph unicode="9" d="M92 956q0 119 58 221.5t157 163t215 60.5q201 0 329 -161t128 -413q0 -305 -194.5 -532.5t-540.5 -325.5l-25 33q255 103 394.5 267t183.5 413q-87 -68 -161 -98.5t-155 -30.5q-161 0 -275 118t-114 285zM256 979q0 -169 70.5 -272t187.5 -103q120 0 291 133q2 6 2 11v4 q8 49 8 122q0 226 -80.5 357t-218.5 131q-120 0 -190 -103t-70 -280z" />
<glyph unicode=":" horiz-adv-x="571" d="M172 80q0 43 33 72.5t80 29.5q50 0 82 -29.5t32 -74.5q0 -46 -31.5 -75.5t-82.5 -29.5q-49 0 -81 30.5t-32 76.5zM172 791q0 44 32.5 73t80.5 29q51 0 82.5 -28.5t31.5 -73.5q0 -46 -31.5 -75.5t-82.5 -29.5q-49 0 -81 30t-32 75z" />
<glyph unicode=";" horiz-adv-x="571" d="M174 72q0 46 34 78t85 32q66 0 109.5 -52.5t43.5 -131.5q0 -101 -67.5 -191t-175.5 -133l-15 41q80 46 124 103.5t44 115.5q0 48 -28 48q-1 0 -27 -5.5t-35 -5.5q-38 0 -65 30t-27 71zM176 793q0 43 33 72.5t82 29.5t80.5 -29.5t31.5 -74.5q0 -46 -31.5 -75.5 t-82.5 -29.5q-49 0 -81 30.5t-32 76.5z" />
<glyph unicode="&#x3c;" d="M115 698v13l848 544v-77l-639 -416l639 -426v-205z" />
<glyph unicode="=" d="M88 514v68h901v-68h-901zM88 815v68h901v-68h-901z" />
<glyph unicode="&#x3e;" d="M115 131v78l639 414l-639 428v204l848 -567v-12z" />
<glyph unicode="?" horiz-adv-x="778" d="M113 1288q0 49 50.5 77t139.5 28q155 0 264 -103q61 -57 89 -126.5t28 -166.5q0 -142 -69.5 -228.5t-229.5 -143.5q-51 -19 -73.5 -42.5t-22.5 -58.5q0 -33 19 -67.5t65 -87.5h-51q-107 127 -107 227q0 69 37 111.5t127 74.5q120 45 168 80q38 26 61 72t23 96 q0 92 -59.5 143.5t-165.5 51.5q-37 0 -125 -13q-24 -4 -43 -4q-60 0 -92.5 21t-32.5 59zM227 80q0 43 33 72.5t80 29.5q51 0 83 -29.5t32 -74.5q0 -46 -32 -75.5t-83 -29.5q-49 0 -81 30.5t-32 76.5z" />
<glyph unicode="@" horiz-adv-x="1568" d="M117 469q0 145 56 277.5t150.5 229t225.5 153.5t274 57q175 0 319.5 -79t227 -218t82.5 -307q0 -140 -69.5 -257.5t-189.5 -185t-263 -67.5q-46 0 -66 21.5t-20 70.5q0 47 26 174q-130 -136 -204.5 -198t-108.5 -62q-41 0 -73.5 57.5t-32.5 132.5q0 102 54.5 209.5 t139 190.5t194 136.5t212.5 53.5q18 0 41 -2l-123 -602q-8 -40 -8 -57q0 -25 17.5 -39.5t49.5 -14.5q82 0 172 72q184 147 184 365q0 232 -163 385q-167 159 -398 159q-174 0 -321 -87.5t-232.5 -238.5t-85.5 -329q0 -181 86.5 -332t236 -238t327.5 -87q220 0 415 143h82 q-97 -98 -227.5 -151.5t-276.5 -53.5q-193 0 -356.5 96t-258.5 261.5t-95 361.5zM563 307q0 -57 17.5 -97t42.5 -40q23 0 81.5 50t178.5 173l75 371q-136 -11 -213 -66q-80 -54 -131 -163.5t-51 -227.5z" />
<glyph unicode="A" horiz-adv-x="1488" d="M6 0v41q37 1 61 4t46.5 13t37 23t30.5 39t29.5 57t31.5 81l401 1094l-20 49h190l420 -1114q22 -60 35.5 -93.5t31 -65.5t31.5 -45.5t36 -25t45.5 -14t60.5 -2.5v-41h-605v41h25q85 0 128 6.5t60 22.5t17 47q0 18 -4.5 32.5t-28.5 79.5l-141 377h-455l-125 -344l-12 -32 t-9.5 -26t-7 -20.5t-5.5 -16t-4.5 -11.5t-3 -9.5t-1.5 -7t-1.5 -6.5t-0.5 -5.5v-6.5q0 -14 3.5 -24.5t12.5 -18.5t18 -13.5t25.5 -9.5t28.5 -6.5t34.5 -4t35.5 -2t40 -1.5h15v-41h-506zM508 702h381l-195 515z" />
<glyph unicode="B" horiz-adv-x="1388" d="M-6 0v41h49q127 0 172 37q28 22 35.5 56.5t7.5 139.5v818q0 97 -6.5 133.5t-26.5 58.5q-22 23 -57.5 32t-108.5 9h-47v41q471 20 633 20q132 0 214.5 -12.5t152.5 -44.5q85 -37 134.5 -108t49.5 -156q0 -101 -71 -179t-181 -100q157 -47 241.5 -143.5t84.5 -228.5 q0 -118 -70.5 -223.5t-179.5 -151.5q-52 -23 -134 -31t-259 -8h-633zM440 369q0 -174 29 -228q49 -82 223 -82q173 0 264 82q47 43 77 116t30 146q0 93 -45.5 174t-122.5 125q-59 32 -113.5 42t-181.5 10h-160v-385zM440 797h166q132 0 194 11t105 42q90 68 90 203 q0 92 -46 163t-126 103q-76 29 -221 29q-42 0 -162 -9v-542z" />
<glyph unicode="C" horiz-adv-x="1601" d="M117 666q0 211 100.5 379t280.5 262t407 94q194 0 389 -72q55 -18 76 -18q18 0 37 12h35l18 -315h-41q-55 154 -193 247t-308 93q-119 0 -232.5 -45t-191.5 -123q-83 -83 -127.5 -203.5t-44.5 -263.5q0 -192 81.5 -349.5t225 -248t317.5 -90.5q349 0 533 319h43 q-18 -61 -62 -161.5t-80 -159.5q-20 4 -45 4q-30 0 -55.5 -4.5t-134.5 -28.5q-135 -29 -262 -29q-219 0 -394 89.5t-273.5 250t-98.5 361.5z" />
<glyph unicode="D" horiz-adv-x="1681" d="M47 0v41h35q103 0 143 43q24 25 28.5 51t4.5 141v816q0 98 -6.5 135t-26.5 59t-55.5 30.5t-106.5 8.5h-16v41q541 20 666 20q207 0 345.5 -34.5t252.5 -114.5q122 -88 187 -218.5t65 -287.5q0 -201 -105.5 -371.5t-290.5 -267.5q-140 -73 -346 -88q-78 -4 -227 -4h-547z M440 195q0 -66 4 -87t19 -36q15 -19 44 -25t97 -6q213 0 318 27.5t202 107.5q114 95 174 227.5t60 290.5q0 249 -127 416t-348 207q-135 24 -314 24q-39 0 -129 -4v-1142z" />
<glyph unicode="E" horiz-adv-x="1290" d="M-8 0v43h53q126 0 172 35q28 22 35.5 56t7.5 142v814q0 102 -5.5 136t-25.5 56q-40 43 -145 43h-47v41h1055l18 -305h-41q-14 115 -55 182q-22 35 -52 43t-137 8h-383v-546h316q100 0 128.5 7t45.5 36q24 41 33 122h41v-419h-41q-9 81 -35 127q-19 32 -47 39.5t-131 7.5 h-310v-400q0 -79 4.5 -109t16.5 -48q17 -20 42 -25.5t103 -5.5h221q119 0 164 11t76 46q57 67 86 191h41l-35 -328h-1169z" />
<glyph unicode="F" horiz-adv-x="1169" d="M94 1325v41h985v-258h-41q-3 90 -37 133q-25 29 -60.5 37t-145.5 8h-355v-514h361q90 0 119 6.5t51 32.5q27 35 33 100h36v-387h-36q-5 76 -31 115q-22 34 -54.5 43.5t-127.5 9.5h-351v-416q0 -114 4.5 -140.5t28.5 -51.5q40 -43 143 -43h17v-41h-535v41q105 7 132.5 48 t27.5 187v814q0 146 -28.5 187.5t-135.5 47.5z" />
<glyph unicode="G" horiz-adv-x="1615" d="M117 657q0 158 62 301.5t175 247.5q207 195 531 195q86 0 161 -13t207 -49q55 -14 72 -14q31 0 47 16h31v-356h-43q-35 175 -150.5 270t-294.5 95q-270 0 -431.5 -184.5t-161.5 -493.5q0 -282 153 -461q80 -91 189 -141t229 -50q171 0 336 84v205q0 103 -5.5 136.5 t-27.5 58.5q-35 41 -141 41h-82v41h592v-39q-103 -10 -128.5 -50.5t-25.5 -187.5v-205q-89 -55 -267 -97t-319 -42q-202 0 -364 89.5t-253 247.5t-91 355z" />
<glyph unicode="H" horiz-adv-x="1744" d="M74 0v41h10q103 0 143 43q24 25 28.5 51.5t4.5 140.5v814q0 52 -2 84t-8.5 59.5t-16 42t-29 25.5t-42.5 16t-60 8v41h523v-41h-9q-104 0 -141 -43q-24 -27 -28.5 -53t-4.5 -139v-363h863v363q0 101 -5.5 135.5t-25.5 56.5q-40 43 -144 43h-40v41h565v-41q-39 -2 -64 -6.5 t-45 -15t-30.5 -25.5t-17.5 -42.5t-9 -60.5t-2 -85v-814q0 -114 4.5 -140.5t28.5 -51.5q40 -43 143 -43h23v-41h-621v41h65q104 0 144 43q20 22 25.5 56.5t5.5 135.5v377h-863v-377q0 -114 4.5 -140.5t28.5 -51.5q40 -43 141 -43h11v-41h-553z" />
<glyph unicode="I" horiz-adv-x="700" d="M96 0v41q38 2 62.5 6.5t44 15.5t30 25.5t17 42.5t8.5 60.5t2 84.5v814q0 52 -2 84.5t-8.5 60.5t-17 42.5t-30 25.5t-44 15.5t-62.5 6.5v41h533v-41h-11q-103 0 -143 -43q-22 -23 -27.5 -57t-5.5 -135v-814q0 -114 4.5 -140.5t28.5 -51.5q40 -43 143 -43h11v-41h-533z" />
<glyph unicode="J" horiz-adv-x="673" d="M-240 -397q0 35 24 61.5t58 26.5q21 0 41.5 -10t65.5 -43q40 -29 65.5 -40.5t53.5 -11.5q76 0 122 62q37 53 46.5 121t9.5 286v1035q0 115 -4.5 141t-28.5 51q-40 43 -143 43h-25v41h553v-41q-59 -2 -90.5 -11t-50.5 -36.5t-24 -68.5t-5 -119v-701v-150t-2.5 -90.5 t-3.5 -51t-6 -56.5q-34 -260 -151.5 -408.5t-289.5 -148.5q-91 0 -153 34t-62 85z" />
<glyph unicode="K" horiz-adv-x="1536" d="M45 0v41h39q103 0 143 43q24 25 28.5 51t4.5 141v814q0 115 -4.5 141t-28.5 51q-40 43 -143 43h-39v41h592v-41h-19q-103 0 -143 -43q-24 -25 -28.5 -51t-4.5 -141v-414q80 11 156 63.5t178 169.5q102 116 160.5 208.5t58.5 137.5q0 40 -29 53.5t-122 16.5v41h575v-41 q-89 -2 -136.5 -9.5t-93 -34.5t-78 -66.5t-85.5 -120.5q-96 -143 -175 -231t-159 -146q24 -4 45.5 -18t67.5 -56q154 -141 416 -457q53 -63 78 -84.5t59 -35.5q60 -25 168 -25h14v-41h-645v41q77 2 110 16.5t33 46.5q0 22 -20.5 53t-83.5 103q-213 243 -340 336 q-58 41 -129 41q-13 0 -23 -2v-359q0 -115 4.5 -141t28.5 -51q40 -43 143 -43h29v-41h-602z" />
<glyph unicode="L" horiz-adv-x="1216" d="M49 0v39h41q64 0 92 7t49 28q21 23 25 52.5t4 160.5v803q0 115 -4.5 141t-28.5 51q-40 43 -143 43h-29v41h650v-41l-27 -2q-3 0 -22 -1t-33 -1q-40 -1 -59.5 -2t-43.5 -6t-33 -8.5t-21 -18t-14.5 -25t-6 -39.5t-3.5 -52v-70v-893q0 -33 0.5 -51t5.5 -34.5t10.5 -23 t20.5 -11.5t30.5 -6t45.5 -1h246q46 0 70.5 1t52 7t41.5 13.5t36.5 27t40 40t48.5 60.5l71 93h39l-168 -322h-983z" />
<glyph unicode="M" horiz-adv-x="2013" d="M27 0v41q65 1 97.5 7.5t54.5 34t28.5 68.5t11.5 125l51 857q4 46 4 79q0 60 -29 84t-106 29v41h332l530 -1110l527 1110h323v-41q-96 -8 -120.5 -22.5t-24.5 -65.5q0 -5 0.5 -11t1.5 -14.5t2.5 -31.5t3.5 -54l60 -843q9 -140 13 -165.5t21 -43.5q18 -20 46.5 -26.5 t91.5 -6.5h22v-41h-565v41q106 0 150 33.5t44 115.5q0 23 -8 129l-57 852l-551 -1171h-49l-563 1171l-56 -880q-4 -66 -4 -109q0 -71 40.5 -104t133.5 -37v-41h-456z" />
<glyph unicode="N" horiz-adv-x="1814" d="M72 0v41q91 0 137 25t49 96q2 14 2 117v991q-67 52 -184 55v41h346l1034 -1079v805q0 117 -10.5 154t-48.5 57q-32 17 -156 22v41h514v-41q-142 -5 -168 -29q-23 -19 -27 -40.5t-4 -129.5v-1140h-57l-1139 1190v-887q0 -101 5 -138.5t22 -60.5q22 -28 50.5 -35t129.5 -12 l15 -2v-41h-510z" />
<glyph unicode="O" horiz-adv-x="1806" d="M115 672q0 147 65.5 289t177.5 239q229 201 555 201q301 0 527 -174q252 -196 252 -512q0 -208 -103.5 -380t-283 -271t-396.5 -99q-267 0 -485 139q-152 97 -230.5 241.5t-78.5 326.5zM322 723q0 -200 81 -362t224 -253.5t321 -91.5q264 0 412 211q127 180 127 424 q0 149 -48 279t-131.5 222t-201.5 145t-254 53q-207 0 -348 -144q-86 -89 -134 -216t-48 -267z" />
<glyph unicode="P" horiz-adv-x="1239" d="M47 1325v41q297 20 481 20q168 0 270 -16.5t169 -54.5q194 -108 194 -316q0 -195 -144 -308t-390 -113q-92 0 -185 18v-320q0 -134 21 -174q36 -61 155 -61h74v-41h-610v41l31 2q69 5 93.5 11.5t37.5 27.5q12 19 14 41t2 139v879q0 91 -3.5 113.5t-18.5 41.5 q-17 20 -38 24.5t-100 4.5h-53zM442 637q75 -16 125 -16q172 0 280.5 107t108.5 276q0 88 -31 163t-83 115q-87 66 -264 66q-64 0 -136 -13v-698z" />
<glyph unicode="Q" horiz-adv-x="1806" d="M117 662q0 207 104 376.5t286.5 266t405.5 96.5q308 0 527 -174q252 -197 252 -512q0 -262 -162 -462t-426 -265q56 -20 128.5 -71.5t197.5 -158.5q97 -84 171 -119t158 -36l-35 -47q-52 -15 -102 -15q-114 0 -219.5 50t-257.5 176q-108 92 -168.5 131t-138.5 69 q-322 29 -521.5 221.5t-199.5 473.5zM324 723q0 -200 81 -362t223.5 -253.5t319.5 -91.5q266 0 414 211q125 177 125 424q0 149 -47.5 279t-131 222t-201 145t-253.5 53q-207 0 -348 -144q-86 -89 -134 -216t-48 -267z" />
<glyph unicode="R" horiz-adv-x="1691" d="M45 0v41h39q103 0 143 43q24 25 28.5 51t4.5 141v816q0 97 -6.5 133.5t-26.5 58.5q-22 23 -57.5 32t-108.5 9h-14v41q304 20 518 20q313 0 453 -90q81 -51 125.5 -129.5t44.5 -169.5q0 -124 -77.5 -220.5t-211.5 -137.5q77 -61 139 -119.5t219 -218.5 q148 -151 258.5 -215.5t237.5 -71.5v-39h-74q-217 0 -333 52q-63 28 -124 78.5t-200 189.5q-240 237 -317 285q-96 -7 -148 -7q-56 0 -115 5v-302q0 -115 4.5 -141t28.5 -51q40 -43 143 -43h52v-41h-625zM442 618q55 -6 105 -6q196 0 299 66q63 43 99 124t36 179 q0 185 -107 276t-325 91q-39 0 -107 -7v-723z" />
<glyph unicode="S" horiz-adv-x="1075" d="M96 334h43q23 -77 51 -126.5t70 -86.5q105 -96 248 -96q127 0 216 74t89 180q0 89 -61 163q-36 42 -75.5 72t-160.5 107q-205 132 -285 204q-122 110 -122 256q0 138 111 229t280 91q109 0 215 -35q64 -20 84 -20q19 0 39 20h32l39 -279h-39q-44 119 -141.5 191 t-212.5 72q-107 0 -175.5 -58t-68.5 -149q0 -95 86 -178q40 -39 81.5 -68.5t160.5 -103.5q218 -138 297.5 -233.5t79.5 -219.5q0 -161 -128.5 -268t-322.5 -107q-98 0 -239 43q-54 15 -68 15q-27 0 -41 -23h-37z" />
<glyph unicode="T" horiz-adv-x="1484" d="M68 1044l34 357h39q10 -25 29.5 -30t101.5 -5h940q82 0 101.5 5t29.5 30h39l35 -357h-39q-25 149 -65 201q-23 29 -44 35t-102 6h-333v-1010q0 -116 4.5 -141.5t27.5 -50.5q40 -43 144 -43h71v-41h-682v41h76q103 0 143 43q24 25 28.5 51.5t4.5 140.5v1010h-334 q-84 0 -106 -7.5t-47 -43.5q-35 -53 -58 -191h-38z" />
<glyph unicode="U" horiz-adv-x="1763" d="M51 1327v39h565v-41h-18q-103 0 -143 -43q-11 -12 -15.5 -18.5t-9.5 -17t-6 -32t-1.5 -47t-0.5 -77.5v-437q0 -105 2 -147t10 -82q35 -164 163 -254t327 -90q215 0 345 100.5t152 290.5q2 25 2 168v387q0 129 -10.5 180.5t-42.5 77.5q-24 22 -57.5 30t-104.5 11v41h516 v-41q-58 -3 -92.5 -14t-60.5 -35q-31 -31 -39 -71t-8 -169v-393q0 -131 -2 -168t-13 -88q-44 -203 -235 -326q-155 -96 -397 -96q-371 0 -543 234q-57 78 -75.5 161.5t-18.5 260.5v471q0 59 -1.5 92.5t-9.5 63t-18 42.5t-34 22.5t-51 11.5t-75 3z" />
<glyph unicode="V" horiz-adv-x="1441" d="M-25 1325v41h605v-41q-121 -4 -171.5 -25t-50.5 -65q0 -31 37 -121l373 -924l346 906q39 101 39 137q0 51 -47 71.5t-158 20.5v41h508v-41q-90 -1 -141 -50t-101 -179l-436 -1135h-110l-467 1165q-36 91 -61.5 129.5t-61 54t-103.5 15.5z" />
<glyph unicode="W" horiz-adv-x="2127" d="M-39 1325v41h569v-41h-16q-73 0 -104 -16q-15 -7 -25 -25t-10 -35q0 -31 43 -139l368 -930l238 588l-162 393q-40 98 -86 130.5t-155 33.5v41h901v-41q-111 -1 -153.5 -31.5t-84.5 -132.5l-121 -295l289 -686l360 950q31 82 36 97.5t5 27.5q0 37 -36 52t-131 18v41h454 v-41q-99 -1 -142 -38.5t-89 -160.5l-443 -1165h-104l-287 684l-276 -684h-109l-442 1133q-25 64 -43.5 100.5t-40.5 65.5t-50 41t-63 18t-90 6zM993 1282q0 -18 27 -78l92 -215l84 203q27 66 27 86q0 47 -68 47h-90q-72 0 -72 -43z" />
<glyph unicode="X" horiz-adv-x="1648" d="M20 1325v41h658v-41q-103 -2 -139.5 -13t-36.5 -42q0 -22 11 -41t60 -78l267 -328l217 260q119 141 119 191q0 40 -66 49q-33 0 -88 2v41h528v-41q-121 -4 -202.5 -58t-210.5 -214l-242 -297l414 -514q99 -124 154 -157.5t179 -43.5v-41h-606v41q90 5 115 15t25 42 q0 43 -68 125l-324 400l-350 -420q-57 -66 -57 -107q0 -29 34.5 -40.5t131.5 -14.5v-41h-520v41q114 9 178.5 51.5t183.5 183.5l346 412l-346 430q-104 130 -169.5 167t-195.5 40z" />
<glyph unicode="Y" horiz-adv-x="1501" d="M-31 1323v43h586v-43q-82 0 -119 -12.5t-37 -40.5q0 -21 12 -45t58 -97l317 -489l277 465q41 69 54 98.5t13 48.5q0 38 -30.5 55t-100.5 17h-14v43h498v-43q-113 -7 -175 -56.5t-149 -195.5l-317 -536v-259q0 -115 4.5 -141t27.5 -51q40 -43 144 -43h29v-41h-605v41h41 q104 0 144 43q23 25 27.5 50.5t4.5 141.5v234l-389 608q-36 56 -62 90t-51 58.5t-53 35.5t-58 15.5t-77 5.5z" />
<glyph unicode="Z" horiz-adv-x="1486" d="M88 0v51l987 1235h-592q-121 0 -158.5 -9.5t-60.5 -45.5q-29 -44 -43 -174h-41l13 309h1130v-49l-993 -1237h704q94 0 127 4.5t62 21.5t45 42t31.5 76.5t43.5 172.5h37l-24 -397h-1268z" />
<glyph unicode="[" horiz-adv-x="663" d="M197 -471v1905h424v-41l-154 -4q-55 -1 -76.5 -7t-34.5 -20q-10 -13 -12 -28.5t-2 -82.5v-1538q0 -68 2 -82.5t12 -27.5q12 -15 33 -20.5t78 -6.5l154 -6v-41h-424z" />
<glyph unicode="\" horiz-adv-x="618" d="M94 1450h82l440 -1939h-81z" />
<glyph unicode="]" horiz-adv-x="663" d="M41 -430l154 6q56 1 77 6.5t33 20.5q10 13 12 27.5t2 82.5v1538q0 68 -2 83t-12 28q-13 14 -34 20t-76 7l-154 4v41h424v-1905h-424v41z" />
<glyph unicode="^" horiz-adv-x="1024" d="M-51 586l567 848h12l545 -848h-78l-413 639l-428 -639h-205z" />
<glyph unicode="_" horiz-adv-x="1024" d="M0 -180h1024v-88h-1024v88z" />
<glyph unicode="`" horiz-adv-x="1024" d="M186 1442h244l283 -369h-33z" />
<glyph unicode="a" horiz-adv-x="847" d="M63 154q0 82 57.5 129t201.5 86q115 32 196 84v174q0 62 -8 89.5t-35 57.5q-52 55 -119 55q-50 0 -92.5 -34t-42.5 -74q0 -14 12 -39l-149 -74q-8 21 -8 33q0 62 100 145q68 57 119.5 82t105.5 25q66 0 130.5 -32t99.5 -83q23 -31 28 -59.5t5 -130.5v-293 q0 -111 1 -135.5t7 -42.5q12 -37 51 -37q43 0 106 47l11 -31q-61 -55 -121 -89t-96 -34q-46 0 -72 34.5t-29 98.5q-21 -12 -51 -36q-69 -58 -111.5 -77.5t-101.5 -19.5q-86 0 -140.5 50.5t-54.5 130.5zM205 180q0 -54 37.5 -91.5t91.5 -37.5q26 0 49.5 11.5t85.5 54.5 q13 10 49 30v263q-47 -28 -190 -86q-66 -28 -94.5 -61t-28.5 -83z" />
<glyph unicode="b" horiz-adv-x="1083" d="M12 1350v39l264 88h33v-742q120 85 198 121.5t138 36.5q93 0 175.5 -57.5t131.5 -155.5t49 -209q0 -214 -147.5 -356t-368.5 -142q-127 0 -321 41v1192q0 70 -1.5 85t-8.5 24q-11 13 -80 24zM309 387q0 -127 7 -170t34 -82q67 -98 199 -98q135 0 221 104.5t86 268.5 t-85.5 274.5t-213.5 110.5q-99 0 -248 -105v-303z" />
<glyph unicode="c" horiz-adv-x="919" d="M82 397q0 135 68 249.5t184.5 181.5t253.5 67q103 0 174.5 -36.5t71.5 -88.5q0 -28 -19 -46.5t-47 -18.5q-30 0 -57 15t-68 54q-38 37 -67 51.5t-64 14.5q-114 0 -198.5 -117t-84.5 -274q0 -166 88.5 -276t221.5 -110q82 0 143 36t125 122l33 -18q-68 -111 -165 -170.5 t-212 -59.5q-194 0 -297 152q-84 124 -84 272z" />
<glyph unicode="d" horiz-adv-x="1097" d="M80 399q0 204 138 345t339 141q114 0 219 -43v375v49t-4.5 31.5t-7 21t-16 11t-23.5 7.5t-37 4l-74 9v36l281 91h27v-1237q0 -87 11.5 -110.5t53.5 -23.5q2 0 94 23v-45l-278 -111h-27v158q-223 -158 -346 -158q-145 0 -247.5 124.5t-102.5 301.5zM225 463 q0 -164 83.5 -278.5t203.5 -114.5q51 0 123 28.5t141 75.5v485q-61 88 -124.5 127t-143.5 39q-123 0 -203 -102t-80 -260z" />
<glyph unicode="e" horiz-adv-x="937" d="M82 424q0 126 57 236t156 176q88 59 215 59q167 0 252 -107q18 -21 27 -37t36 -75q20 -45 43 -68v-35h-641q-8 -49 -8 -98q0 -167 96 -280t238 -113q83 0 149 34.5t129 110.5l25 -26q-67 -82 -149 -144q-107 -84 -242 -84q-161 0 -272 130.5t-111 320.5zM233 614h451 q-17 108 -77.5 173t-143.5 65q-82 0 -141.5 -61.5t-88.5 -176.5z" />
<glyph unicode="f" horiz-adv-x="595" d="M37 774v37q97 21 162 59q1 140 27 227t89 169q80 100 176.5 156.5t188.5 56.5q72 0 149.5 -35.5t77.5 -67.5q0 -23 -24.5 -65.5t-38.5 -42.5q-8 0 -45 28q-116 84 -213 84q-70 0 -129 -41.5t-84 -109.5q-19 -52 -24 -106t-5 -197v-56h223l15 -96h-238v-512 q0 -105 5.5 -138t25.5 -52q36 -31 133 -31h84v-41h-543v41h12q91 0 115 35q15 22 19 55t4 141v502h-162z" />
<glyph unicode="g" horiz-adv-x="993" d="M43 -305q0 45 22 78.5t78 74.5q102 77 136 119q-90 9 -149.5 53.5t-59.5 102.5q0 38 23 60.5t87 47.5q82 33 113 54q-101 37 -156 107.5t-55 164.5q0 141 111.5 238.5t273.5 97.5q154 0 246 -86q151 3 288 22v-137q-143 7 -219 27q37 -75 37 -146q0 -135 -109.5 -224 t-275.5 -89q-43 0 -102 12q-25 -22 -92 -59q-39 -22 -39 -53q0 -52 129 -66q62 -8 258 -10q174 -3 262 -39q57 -22 94 -77t37 -118q0 -64 -41.5 -127t-116.5 -114q-181 -121 -438 -121q-152 0 -247 57.5t-95 149.5zM180 -227q0 -86 98.5 -154t223.5 -68q144 0 254 78.5 t110 180.5q0 103 -114 127q-7 2 -12.5 3t-11.5 1.5t-16.5 1t-21.5 1.5t-32.5 1.5l-43 1t-61 2t-78.5 2.5q-108 2 -153 8q-5 -6 -7.5 -9.5t-7.5 -9t-7.5 -8t-11 -10.5t-14 -13t-21.5 -19t-28 -25q-45 -42 -45 -92zM227 616q0 -138 65.5 -227.5t168.5 -89.5q95 0 154 71.5 t59 188.5q0 128 -66.5 211.5t-167.5 83.5q-94 0 -153.5 -67t-59.5 -171z" />
<glyph unicode="h" horiz-adv-x="1140" d="M53 1348v38l264 91h33v-721q133 78 213.5 108.5t151.5 30.5q151 0 205 -117q21 -44 28.5 -97.5t7.5 -160.5q0 -59 -5 -202.5t-5 -190.5q0 -50 32 -68t120 -18h14v-41h-473v41h10q124 0 142 90q8 37 14 134t6 184q0 120 -7.5 174t-27.5 90q-55 92 -170 92q-55 0 -107 -19 t-149 -75v-437q0 -122 3 -146.5t18 -45.5q15 -23 40.5 -32t77.5 -9h5v-41h-439v41q46 1 74 12t49 35q17 20 22 53t5 131v920q0 85 -1.5 100.5t-10.5 26.5q-15 15 -78 22z" />
<glyph unicode="i" horiz-adv-x="571" d="M37 0v41q49 5 70.5 8.5t47.5 13t34.5 20.5t17.5 36t10.5 55.5t1.5 81.5v367q0 84 -13 101t-93 34q-3 1 -5 1.5t-4 0.5l-55 12v35l285 98h31v-649q0 -97 3.5 -122t22.5 -48q19 -22 46 -31.5t85 -13.5v-41h-485zM182 1323q0 35 28 58.5t69 23.5t68.5 -23.5t27.5 -60.5 t-27.5 -60.5t-68.5 -23.5q-43 0 -70 24t-27 62z" />
<glyph unicode="j" horiz-adv-x="534" d="M-248 -397q0 41 20 71.5t46 30.5q20 0 42.5 -15t80.5 -65q59 -53 116 -53q51 0 88 34t50 95q7 33 8.5 70t1.5 184v668q0 86 -13 102.5t-92 32.5q-5 1 -8 2l-59 12v35l284 98h33v-860q0 -167 -18 -251.5t-72 -158.5q-105 -147 -285 -147q-90 0 -156.5 34.5t-66.5 80.5z M160 1323q0 35 27.5 58.5t70.5 23.5q41 0 68.5 -23.5t27.5 -60.5t-27.5 -60.5t-70.5 -23.5t-69.5 24t-26.5 62z" />
<glyph unicode="k" horiz-adv-x="1101" d="M51 1350v39l266 88h33v-953l293 205q59 41 59 64q0 19 -24 27.5t-82 8.5h-10v41h436v-41q-93 -3 -165.5 -34.5t-197.5 -120.5l-178 -127l353 -361q87 -90 134 -115t126 -30v-41h-471v41q98 0 98 41q0 23 -53 76l-318 327v-231q0 -117 3 -139.5t22 -42.5q17 -19 37.5 -25 t66.5 -6h23v-41h-447v41h8q34 0 66 13t49 34q17 22 22 53.5t5 130.5v897q0 100 -1.5 118.5t-10.5 27.5q-8 13 -78 24z" />
<glyph unicode="l" horiz-adv-x="534" d="M23 0v41h14q100 0 139 45q22 23 25.5 48t3.5 147v888q0 100 -1.5 119t-10.5 29q-12 14 -78 22l-76 11v36l278 91h33v-1180q0 -150 6 -180q12 -40 45.5 -58t96.5 -18h18v-41h-493z" />
<glyph unicode="m" horiz-adv-x="1746" d="M49 0v41h8q80 0 121 47q17 22 22 53.5t5 130.5v303q0 127 -8 148q-21 31 -101 39l-41 4v37l262 94h33v-176q257 172 395 172q78 0 133 -47t70 -127q272 174 398 174q63 0 112 -32t74 -89q20 -45 27 -104t6 -195q0 -22 -6.5 -163t-6.5 -169q0 -59 33.5 -79.5t128.5 -20.5 h27v-41h-494v41h21q69 0 96.5 19.5t36.5 76.5q14 110 14 328q0 110 -5.5 161t-20.5 85q-20 44 -57.5 69t-84.5 25q-51 0 -132 -35t-163 -92v-404q0 -118 3.5 -144t17.5 -48q28 -41 110 -41h9v-41h-449v41h16q80 0 121 47q17 22 22 53.5t5 130.5v254q0 107 -4 139.5t-19 63.5 q-17 35 -55.5 56.5t-83.5 21.5q-51 0 -117 -28.5t-178 -98.5v-406q0 -122 3 -146.5t18 -45.5q15 -23 41.5 -32t81.5 -9h12v-41h-457z" />
<glyph unicode="n" horiz-adv-x="1150" d="M57 0v41h9q32 0 63.5 13.5t48.5 33.5q17 22 22 54t5 130v289q0 135 -8 154q-7 14 -26.5 22t-72.5 21l-35 8v33l254 94h33v-191q118 85 220 132t167 47q60 0 110 -31t79 -88q41 -75 41 -244q0 -99 -17 -352q-2 -12 -2 -33q0 -53 31.5 -72.5t116.5 -19.5h24v-41h-473v41 q70 6 100 21.5t44 52.5q12 32 20 158.5t8 269.5q0 119 -35 174q-20 34 -59.5 55t-83.5 21q-38 0 -72.5 -12.5t-109.5 -53.5q-74 -39 -109 -65v-388q0 -122 3 -146.5t18 -45.5q15 -23 40.5 -32t77.5 -9h9v-41h-441z" />
<glyph unicode="o" horiz-adv-x="1110" d="M82 438q0 192 136 323.5t335 131.5q201 0 338 -133.5t137 -329.5q0 -192 -135.5 -324.5t-331.5 -132.5q-98 0 -192 38t-160 104q-127 127 -127 323zM246 500q0 -129 45.5 -238.5t124 -173t170.5 -63.5q120 0 199 100.5t79 251.5q0 124 -46.5 231.5t-125 170.5t-168.5 63 q-120 0 -199 -97t-79 -245z" />
<glyph unicode="p" d="M14 -471h21q91 0 127 47q14 21 18 56t4 135v831l-2 70q-1 22 -2.5 30.5t-17 19t-36.5 16t-75 18.5v43l236 143h43v-211q121 88 198.5 124t143.5 36q84 0 159.5 -57t120.5 -152t45 -201q0 -97 -38 -188t-101.5 -157t-149.5 -106t-178 -40q-81 0 -200 43v-262 q0 -112 5 -143t27 -56q39 -39 117 -39h53v-41h-518v41zM330 176q60 -56 130.5 -88.5t131.5 -32.5q112 0 186 96t74 242q0 163 -83.5 275t-205.5 112q-106 0 -233 -108v-496z" />
<glyph unicode="q" horiz-adv-x="1075" d="M82 412q0 201 135 341t330 140q131 0 276 -74q11 15 35.5 40t36.5 32h37q-12 -52 -12 -244v-883q0 -113 4.5 -143t27.5 -53q31 -39 97 -39h22v-41h-532v41h86q91 0 127 47q14 21 18 55.5t4 132.5v371q-176 -151 -334 -151q-155 0 -256.5 121.5t-101.5 306.5zM227 471 q0 -167 89 -281t219 -114q53 0 117.5 29.5t121.5 80.5v277q0 131 -9 181.5t-38 92.5q-73 105 -203 105q-135 0 -216 -101t-81 -270z" />
<glyph unicode="r" horiz-adv-x="733" d="M59 0v41h9q31 0 62 13.5t48 33.5q17 22 22 53.5t5 130.5v443l-146 53v37l248 88h43v-231l70 110q66 109 143 109q20 0 76 -19q29 -11 113 -33l-54 -133q-49 8 -116 37q-49 21 -78 21q-43 0 -84 -56q-37 -54 -70 -110v-314q0 -122 3 -146.5t18 -45.5q15 -23 41 -32t80 -9 h86v-41h-519z" />
<glyph unicode="s" horiz-adv-x="704" d="M111 645q0 109 79 178.5t203 69.5q93 0 174 -33l6 -203h-38q-13 85 -61 135t-114 50q-57 0 -96 -36t-39 -89q0 -54 35.5 -95t136.5 -104q121 -75 170 -127q68 -75 68 -168q0 -106 -79 -178t-194 -72q-54 0 -133 25q-18 6 -24 6q-21 0 -35 -29h-35l-22 246h34 q18 -87 54 -131q31 -36 72.5 -57t80.5 -21q65 0 110.5 43.5t45.5 104.5q0 55 -45.5 108t-155.5 127q-126 84 -162 130t-36 120z" />
<glyph unicode="t" horiz-adv-x="653" d="M78 774v35q62 29 119.5 105.5t89.5 172.5h37v-217h313l-35 -96h-278v-407q0 -120 5.5 -158.5t26.5 -65.5q48 -67 115 -67q72 0 133 110l35 -30q-38 -88 -100.5 -135.5t-139.5 -47.5q-57 0 -107 30t-81 81q-22 39 -27.5 76.5t-5.5 154.5v459h-100z" />
<glyph unicode="u" horiz-adv-x="1142" d="M47 799v32l283 62v-514q0 -117 5 -154t27 -69q25 -35 70 -56.5t96 -21.5q56 0 126.5 33t136.5 90v407q0 82 -3 107t-12 41q-11 20 -27.5 26.5t-84.5 16.5l-66 10v31l338 53v-735q0 -70 45 -70q5 0 55 8l47 6v-39l-292 -90v179q-245 -179 -375 -179q-62 0 -114.5 28 t-84.5 77q-22 34 -27.5 65t-5.5 115v430q0 47 -19 67t-77 33z" />
<glyph unicode="v" horiz-adv-x="989" d="M-20 829v41h448v-41q-80 -3 -111.5 -15t-31.5 -40q0 -19 39 -110l215 -504l209 475q30 67 30 98q0 90 -157 96v41h383v-41q-54 -13 -83 -33.5t-55 -61.5t-67 -134l-271 -618h-65l-289 665q-51 119 -79 145.5t-115 36.5z" />
<glyph unicode="w" horiz-adv-x="1564" d="M-20 829v41h426v-41q-119 -6 -119 -59q0 -28 35 -104l227 -512l217 512q-40 95 -81.5 127t-133.5 36v41h455v-41q-62 -2 -87.5 -17t-25.5 -50q0 -25 33 -109l202 -489l179 436q49 118 49 154q0 43 -29 57.5t-117 17.5v41h369v-41q-81 -10 -119 -55t-100 -199l-242 -593 h-61l-262 618l-263 -618h-61l-295 663q-51 116 -82.5 145.5t-113.5 38.5z" />
<glyph unicode="x" horiz-adv-x="1075" d="M16 0v41q88 7 130.5 33t132.5 127l196 221l-184 242q-75 99 -124 130t-136 35v41h444v-39l-49 -2q-49 -3 -49 -34q0 -12 9.5 -27t49.5 -70l133 -176l88 103q56 66 74.5 93.5t18.5 51.5q0 32 -25 46t-88 15v39h424v-41q-43 -3 -69 -6t-55.5 -14t-46.5 -21t-49.5 -40 t-56.5 -56t-75 -82l-111 -123l209 -262q92 -116 135 -147t121 -37v-41h-440v39q61 3 82.5 12.5t21.5 32.5q0 5 -1 9.5t-3 8.5t-7.5 11t-10.5 14t-16 21t-21 28l-160 211l-160 -182q-57 -67 -60 -76q-3 -6 -3 -16q0 -32 32.5 -49.5t108.5 -24.5v-39h-410z" />
<glyph unicode="y" horiz-adv-x="989" d="M-31 829v41h443v-41q-68 -2 -98.5 -16t-30.5 -45q0 -17 7 -35t44 -98l221 -475l162 407q55 136 55 176q0 46 -29.5 64.5t-107.5 21.5v41h364v-41q-79 -12 -119 -62t-108 -220l-285 -713q-56 -143 -78 -191t-49 -87q-51 -68 -110 -68q-37 0 -62.5 22t-25.5 54t23 52.5 t75 33.5q62 15 97 58t83 163l43 106l-303 646q-44 93 -69.5 131t-56 55t-85.5 20z" />
<glyph unicode="z" horiz-adv-x="892" d="M70 0v41l555 750h-301q-76 0 -91.5 -3t-27.5 -22q-13 -20 -35.5 -81t-32.5 -105h-41l68 350h37q0 -37 20 -48.5t84 -11.5h524v-39l-557 -751h349q77 0 98 6.5t47 38.5q32 45 61 115h39l-90 -240h-706z" />
<glyph unicode="{" horiz-adv-x="663" d="M47 496v30q95 6 135 43q27 24 32 54t5 168v364q0 98 32.5 164t94.5 92q36 14 77 18.5t169 4.5h35v-41q-71 -2 -108.5 -8t-65.5 -23q-51 -28 -73 -72.5t-22 -122.5v-452q0 -87 -36.5 -134.5t-118.5 -66.5v-6q83 -17 119 -72.5t36 -163.5v-475q0 -126 60 -176.5t209 -50.5 v-41h-31q-199 0 -264 33q-61 31 -87 88.5t-26 163.5v391q0 148 -6 185t-35 65q-21 21 -48 29.5t-83 11.5z" />
<glyph unicode="|" horiz-adv-x="1024" d="M457 -342v1708h110v-1708h-110z" />
<glyph unicode="}" horiz-adv-x="663" d="M35 -430q149 0 208.5 50.5t59.5 176.5v475q0 108 36.5 163.5t119.5 72.5v6q-82 19 -119 67t-37 134v452q0 66 -15.5 109.5t-50 68.5t-82 35.5t-120.5 12.5v41l35 -2h82q88 0 131.5 -11t76.5 -41q82 -70 82 -225v-364q0 -138 5 -168t32 -54q40 -37 137 -43v-30 q-59 -5 -85 -13t-48 -28q-28 -28 -34.5 -67t-6.5 -185v-389q0 -107 -25.5 -165t-86.5 -89q-63 -31 -269 -31h-26v41z" />
<glyph unicode="~" horiz-adv-x="1366" d="M252 1274q59 96 132 147.5t151 51.5q53 0 184 -46q109 -36 164 -36q111 0 200 112l29 -18q-49 -88 -126.5 -142.5t-151.5 -54.5q-31 0 -55 6t-136 43q-117 37 -176 37q-54 0 -88.5 -22t-97.5 -97z" />
<glyph unicode="&#xa1;" horiz-adv-x="571" d="M172 791q0 44 32.5 73t80.5 29q51 0 82.5 -29.5t31.5 -75.5q0 -45 -31.5 -73.5t-82.5 -28.5q-49 0 -81 30t-32 75zM180 -461q0 6 2 37l86 963h35l82 -963q1 -14 2 -22.5t1.5 -11.5t0.5 -5q0 -22 -10 -28.5t-45 -6.5h-98q-35 0 -45.5 7t-10.5 30z" />
<glyph unicode="&#xa2;" d="M174 399q0 134 68 248t184 181t252 67q30 0 70 -6l114 282h43l-117 -290q65 -15 101.5 -44.5t36.5 -66.5q0 -28 -19.5 -46.5t-50.5 -18.5q-20 0 -29 2t-27 14.5t-48 42.5l-7 6l-266 -664q67 -43 152 -43q81 0 142 36.5t126 123.5l33 -20q-67 -112 -164.5 -171t-214.5 -59 q-59 0 -121 19l-143 -361h-45l149 375q-98 47 -158.5 155.5t-60.5 237.5zM322 449q0 -200 122 -316l269 666q-47 41 -107 41q-76 0 -141.5 -53t-104 -143t-38.5 -195z" />
<glyph unicode="&#xa3;" d="M-41 -6q0 47 45 93.5t143 100.5q27 58 115 306h-260l10 53h271q98 263 156 388.5t126 221.5q167 234 348 234q72 0 129.5 -38t57.5 -85q0 -28 -23.5 -48t-56.5 -20q-31 0 -50.5 14.5t-54.5 63.5q-21 35 -63 35q-32 0 -64 -19t-55 -51q-26 -35 -48.5 -82t-68.5 -164 q-157 -381 -192 -450h289l-11 -53h-305q-82 -165 -157 -281q88 33 157 33q63 0 117.5 -28t163.5 -116q50 -38 75 -51.5t48 -13.5q43 0 78.5 35.5t35.5 77.5q0 35 -30 65q-22 23 -28.5 36t-6.5 32q0 31 21 52t51 21q38 0 63 -36t25 -91q0 -109 -92 -195.5t-209 -86.5 q-52 0 -102.5 30t-127.5 105q-52 51 -85.5 69.5t-71.5 18.5q-52 0 -123 -29q-42 -92 -92.5 -143t-96.5 -51q-23 0 -37 12.5t-14 34.5z" />
<glyph unicode="&#xa4;" d="M92 266l135 135q-98 121 -98 269q0 150 98 266l-135 135l43 45l137 -137q115 100 267 100q151 0 266 -100l137 137l43 -45l-135 -135q98 -116 98 -266q0 -147 -98 -269l135 -135l-43 -43l-135 135q-119 -98 -268 -98q-147 0 -269 98l-135 -135zM244 670 q0 -120 86.5 -207.5t204.5 -87.5q124 0 211.5 85.5t87.5 207.5q0 123 -86 210t-209 87q-121 0 -208 -86.5t-87 -208.5z" />
<glyph unicode="&#xa5;" d="M-45 1325v41h440v-41l-12 -2q-54 -1 -75 -8.5t-21 -22.5v-3.5t0.5 -3t1.5 -4t2 -5.5t3 -7.5t4 -9.5t6 -13.5t8 -17.5l10 -22.5t12 -27.5l49 -111h336l37 90q41 101 41 121q0 47 -88 47h-13v41h371v-41q-88 -10 -141 -55.5t-92 -139.5l-27 -63h184v-53h-205l-84 -207h289 v-53h-309l-76 -191v-332q0 -93 4 -113.5t23 -41.5q30 -35 115 -35h22v-41h-483v41h32q85 0 115 35q19 21 23 41.5t4 113.5v314l-96 209h-334v53h309l-94 207h-215v53h190l-47 102q-36 81 -88 117.5t-131 38.5zM406 1014l157 -350l135 350h-292z" />
<glyph unicode="&#xa6;" horiz-adv-x="1024" d="M457 313h110v-655h-110v655zM457 680v686h110v-686h-110z" />
<glyph unicode="&#xa7;" d="M141 899q0 148 67 275.5t181 202.5t246 75q103 0 191.5 -45.5t88.5 -99.5q0 -29 -22.5 -49.5t-56.5 -20.5q-28 0 -46.5 12t-66.5 60q-77 77 -154 77q-83 0 -141.5 -52t-58.5 -126q0 -49 44.5 -128.5t164.5 -245.5q143 -200 207 -304t98 -190q59 -142 59 -301 q0 -178 -102 -309q-75 -100 -182.5 -157.5t-217.5 -57.5q-104 0 -187 42.5t-83 96.5q0 28 21.5 49t50.5 21q25 0 43 -12t55 -50q36 -41 82.5 -63.5t89.5 -22.5q78 0 140.5 53t62.5 119q0 59 -34.5 121t-182.5 270q-206 289 -281.5 450t-75.5 310zM223 915q0 -180 144 -421 q53 -86 227 -340q81 -118 131.5 -219t58.5 -160q72 109 72 243q0 114 -27 205q-26 93 -71 174t-170 262q-171 251 -222.5 344.5t-70.5 184.5q-33 -52 -52.5 -125.5t-19.5 -147.5z" />
<glyph unicode="&#xa8;" horiz-adv-x="1024" d="M201 1231q0 40 29 68t69 28t68 -28t28 -68t-29 -69t-67 -29q-41 0 -69.5 29t-28.5 69zM627 1231q0 39 28.5 67.5t67.5 28.5q41 0 69.5 -28t28.5 -68t-29 -69t-67 -29q-41 0 -69.5 28.5t-28.5 69.5z" />
<glyph unicode="&#xa9;" horiz-adv-x="1675" d="M117 682q0 146 57.5 279.5t154 229.5t230.5 153t281 57q197 0 363 -96.5t262 -263t96 -363.5q0 -146 -58 -278t-156 -227t-234 -151.5t-286 -56.5q-142 0 -273.5 58t-227 154.5t-152.5 229t-57 275.5zM188 682q0 -175 87 -326t234.5 -240t317.5 -89q182 0 334 86.5 t240 236.5t88 328q0 135 -51 257.5t-138 211t-207 140.5t-253 52q-177 0 -327 -87.5t-237.5 -239t-87.5 -330.5zM449 676q0 159 114.5 261.5t292.5 102.5q104 0 199 -34q24 -9 37 -9q4 0 18 7h20l13 -164h-29q-28 76 -97 122t-157 46q-133 0 -216 -86t-83 -224 q0 -141 90.5 -237t222.5 -96q177 0 271 155h29q-7 -31 -31 -82.5t-45 -85.5q-10 4 -25 4q-14 0 -96 -16q-72 -14 -135 -14q-170 0 -281.5 99t-111.5 251z" />
<glyph unicode="&#xaa;" horiz-adv-x="710" d="M82 637v55h547v-55h-547zM133 944q0 50 36 78.5t126 52.5q64 16 117 47v103q0 36 -5 51t-20 33q-32 32 -70 32q-28 0 -52.5 -19t-24.5 -42q0 -6 8 -27l-98 -45q-9 18 -9 25q0 44 72 98.5t131 54.5q41 0 81.5 -19t63.5 -50q14 -21 17.5 -39t3.5 -76v-176q0 -48 0.5 -68.5 t4.5 -35t9.5 -17t18.5 -2.5q24 0 65 31l10 -27q-89 -76 -137 -76q-29 0 -45 18.5t-22 59.5q-17 -14 -25 -18l-24 -21q-48 -39 -109 -39q-54 0 -88.5 31.5t-34.5 81.5zM227 958q0 -31 22 -52t54 -21q14 0 26.5 6.5t53.5 32.5l29 18v145q-98 -44 -111 -49q-40 -15 -57 -33.5 t-17 -46.5z" />
<glyph unicode="&#xab;" horiz-adv-x="778" d="M74 481l325 408h39l-211 -408l211 -403h-39zM385 481l256 371h37l-137 -371l137 -364h-37z" />
<glyph unicode="&#xac;" horiz-adv-x="1024" d="M74 463v84h878v-547h-192v463h-686z" />
<glyph unicode="&#xad;" horiz-adv-x="870" d="M72 358v148h716v-148h-716z" />
<glyph unicode="&#xae;" horiz-adv-x="1675" d="M117 682q0 146 57.5 279.5t154 229.5t230.5 153t281 57q197 0 363 -96.5t262 -263t96 -363.5q0 -146 -58 -278t-156 -227t-234 -151.5t-286 -56.5q-142 0 -273.5 58t-227 154.5t-152.5 229t-57 275.5zM188 682q0 -175 87 -326t234.5 -240t317.5 -89q182 0 334 86.5 t240 236.5t88 328q0 135 -51 257.5t-138 211t-207 140.5t-253 52q-177 0 -327 -87.5t-237.5 -239t-87.5 -330.5zM446 342v29h25q52 0 72 20q10 11 12 24t2 68v402q0 76 -15 93t-83 17h-10v29q133 10 266 10q159 0 233 -45q88 -56 88 -151q0 -40 -18.5 -78.5t-50.5 -61.5 q-6 -4 -74 -39q51 -40 73 -60t105 -101q77 -75 132.5 -106.5t121.5 -35.5v-26h-41q-120 0 -175.5 25.5t-164.5 131.5q-133 126 -160 142q-29 -4 -69 -4q-33 0 -58 2v-144q0 -53 2.5 -67t12.5 -25q20 -20 69 -20h31v-29h-326zM657 655q50 -4 54 -4q213 0 213 178 q0 91 -54 135t-168 44q-31 0 -45 -4v-349z" />
<glyph unicode="&#xaf;" horiz-adv-x="1024" d="M207 1180v104h604v-104h-604z" />
<glyph unicode="&#xb0;" horiz-adv-x="573" d="M82 1184q0 85 60.5 143.5t146.5 58.5q85 0 144 -59.5t59 -144.5t-60 -145t-143 -60q-86 0 -146.5 60.5t-60.5 146.5zM131 1184q0 -64 46.5 -110t109.5 -46t109 45t46 107q0 66 -45.5 111.5t-111.5 45.5q-63 0 -108.5 -45t-45.5 -108z" />
<glyph unicode="&#xb1;" d="M88 104v68h901v-68h-901zM88 666v67h418v397h67v-397h416v-67h-416v-398h-67v398h-418z" />
<glyph unicode="&#xb2;" horiz-adv-x="692" d="M55 803v26q67 79 248 252q178 175 178 305q0 72 -50 122.5t-122 50.5q-71 0 -128.5 -49t-80.5 -128h-28q12 117 88 188.5t186 71.5q108 0 180 -67t72 -168q0 -99 -63 -174q-23 -28 -42 -44.5t-108 -86.5q-104 -84 -231 -211h303q85 0 106 15.5t33 86.5h29l-27 -190h-543z " />
<glyph unicode="&#xb3;" horiz-adv-x="692" d="M59 883q0 19 14 33t33 14q15 0 31 -8.5t51 -36.5q44 -34 68.5 -46t54.5 -12q75 0 132 69.5t57 162.5q0 75 -41 126.5t-101 51.5q-45 0 -94 -37l-18 27q87 60 136.5 120t49.5 105q0 46 -37.5 80.5t-89.5 34.5q-51 0 -100 -35t-78 -92l-31 10q35 88 103.5 140t150.5 52 q76 0 128 -43t52 -106q0 -49 -29 -89.5t-100 -90.5q53 -6 82.5 -17t55.5 -36q69 -63 69 -166q0 -123 -104 -216.5t-240 -93.5q-83 0 -144 29.5t-61 69.5z" />
<glyph unicode="&#xb4;" horiz-adv-x="1024" d="M301 1073l283 369h243l-493 -369h-33z" />
<glyph unicode="&#xb5;" horiz-adv-x="911" d="M-4 -293q0 37 14 123q25 140 41.5 350t16.5 389v301h147v-520q0 -99 11 -148t42 -83q47 -53 127 -53q74 0 132 37.5t118 123.5v643h146v-630q0 -91 16 -123.5t61 -32.5q31 0 64 22v-32l-166 -94q-6 -3 -8 -3q-78 0 -99 134l-6 39q-115 -111 -175.5 -146t-139.5 -35 q-86 0 -140 44.5t-83 138.5q-2 -27 -2 -62q0 -67 3.5 -102.5t24.5 -175.5q11 -75 11 -99q0 -44 -22 -73t-56 -29t-56 27.5t-22 68.5z" />
<glyph unicode="&#xb6;" d="M76 1006q0 114 45.5 212.5t120.5 151.5q95 64 247 64h555v-41q-57 -3 -87 -12t-48.5 -37.5t-23 -68.5t-4.5 -118v-1358q0 -78 4.5 -118t23 -68t48.5 -37t87 -12v-41h-706v41q38 2 62.5 6.5t44 15.5t30 25.5t17 42.5t8.5 60.5t2 84.5v785h-49q-167 0 -272 117.5 t-105 304.5zM594 -412h197v1780h-197v-1780z" />
<glyph unicode="&#xb7;" horiz-adv-x="571" d="M176 625q0 44 33 76t78 32t77.5 -32.5t32.5 -77.5q0 -44 -33 -77.5t-77 -33.5q-46 0 -78.5 33t-32.5 80z" />
<glyph unicode="&#xb8;" horiz-adv-x="1024" d="M371 -272l170 284h32l-69 -118h16q64 0 109 -48.5t45 -117.5q0 -78 -55.5 -133.5t-133.5 -55.5q-45 0 -94 21l15 30q34 -12 57 -12q47 0 82 34t35 81q0 37 -19.5 58.5t-54.5 21.5q-47 0 -135 -45z" />
<glyph unicode="&#xb9;" horiz-adv-x="692" d="M131 1446q43 27 123.5 96.5t101.5 99.5h54v-729q0 -58 6.5 -67.5t44.5 -9.5h71v-33h-344v33h56q51 0 59 8.5t8 64.5v617q-79 -65 -164 -105z" />
<glyph unicode="&#xba;" horiz-adv-x="710" d="M61 1112q0 116 84.5 195t208.5 79q125 0 209 -80t84 -198q0 -117 -83.5 -197t-205.5 -80q-129 0 -213 79.5t-84 201.5zM80 637v55h549v-55h-549zM170 1149q0 -116 59 -197.5t144 -81.5q71 0 118.5 58.5t47.5 144.5q0 113 -60 194t-143 81q-71 0 -118.5 -56.5 t-47.5 -142.5z" />
<glyph unicode="&#xbb;" horiz-adv-x="778" d="M100 117l138 364l-138 371h39l254 -371l-254 -364h-39zM340 78l211 403l-211 408h41l324 -408l-324 -403h-41z" />
<glyph unicode="&#xbc;" horiz-adv-x="1609" d="M131 1190q43 27 123.5 96.5t101.5 99.5h54v-729q0 -58 6.5 -67.5t44.5 -9.5h71v-33h-344v33h56q51 0 59 8.5t8 64.5v617q-79 -65 -164 -105zM373 0l858 1366h86l-858 -1366h-86zM977 238v34l397 568h45v-529h133v-73h-133v-256h-98v256h-344zM1051 311h270v387z" />
<glyph unicode="&#xbd;" horiz-adv-x="1609" d="M131 1190q43 27 123.5 96.5t101.5 99.5h54v-729q0 -58 6.5 -67.5t44.5 -9.5h71v-33h-344v33h56q51 0 59 8.5t8 64.5v617q-79 -65 -164 -105zM319 0l857 1366h86l-856 -1366h-87zM971 0v27q53 64 248 254q178 175 178 307q0 72 -50 122t-122 50q-70 0 -128 -49t-81 -129 h-29q12 117 88 188.5t187 71.5q107 0 179 -67.5t72 -168.5q0 -99 -63 -174q-23 -28 -42 -44.5t-108 -88.5q-101 -81 -231 -211h303q85 0 106 15.5t33 86.5h29l-27 -190h-542z" />
<glyph unicode="&#xbe;" horiz-adv-x="1609" d="M59 627q0 19 14 33t33 14q15 0 31 -8.5t51 -36.5q44 -34 68.5 -46t54.5 -12q75 0 132 69.5t57 162.5q0 75 -41 126.5t-101 51.5q-45 0 -94 -37l-18 27q87 60 136.5 120t49.5 105q0 46 -37.5 80.5t-89.5 34.5q-51 0 -100 -35t-78 -92l-31 10q35 88 103.5 140t150.5 52 q76 0 128 -43t52 -106q0 -49 -29 -89.5t-100 -90.5q53 -6 82.5 -17t55.5 -36q69 -63 69 -166q0 -123 -104 -216.5t-240 -93.5q-83 0 -144 29.5t-61 69.5zM360 0l857 1366h86l-857 -1366h-86zM979 238v34l395 568h45v-529h135v-73h-135v-256h-98v256h-342zM1053 311h268v387z " />
<glyph unicode="&#xbf;" horiz-adv-x="778" d="M88 -119q0 142 69.5 229t229.5 144q51 19 73.5 42t22.5 58t-18.5 69.5t-63.5 86.5h50q57 -67 81.5 -120t24.5 -107q0 -68 -37 -110.5t-127 -74.5q-120 -45 -168 -80q-38 -28 -61 -74t-23 -94q0 -92 60 -143t166 -51q36 0 125 12q14 2 45 2q58 0 90 -20.5t32 -57.5 q0 -50 -49.5 -77t-140.5 -27q-156 0 -264 102q-61 57 -89 126.5t-28 164.5zM319 793q0 44 33 74t82 30t81 -30t32 -76q0 -43 -33 -73t-80 -30q-49 0 -82 30.5t-33 74.5z" />
<glyph unicode="&#xc0;" horiz-adv-x="1488" d="M6 0v41q37 1 61 4t46.5 13t37 23t30.5 39t29.5 57t31.5 81l401 1094l-20 49h190l420 -1114q22 -60 35.5 -93.5t31 -65.5t31.5 -45.5t36 -25t45.5 -14t60.5 -2.5v-41h-605v41h25q85 0 128 6.5t60 22.5t17 47q0 18 -4.5 32.5t-28.5 79.5l-141 377h-455l-125 -344l-12 -32 t-9.5 -26t-7 -20.5t-5.5 -16t-4.5 -11.5t-3 -9.5t-1.5 -7t-1.5 -6.5t-0.5 -5.5v-6.5q0 -14 3.5 -24.5t12.5 -18.5t18 -13.5t25.5 -9.5t28.5 -6.5t34.5 -4t35.5 -2t40 -1.5h15v-41h-506zM295 1786h285l221 -301h-33zM508 702h381l-195 515z" />
<glyph unicode="&#xc1;" horiz-adv-x="1488" d="M6 0v41q37 1 61 4t46.5 13t37 23t30.5 39t29.5 57t31.5 81l401 1094l-20 49h190l420 -1114q22 -60 35.5 -93.5t31 -65.5t31.5 -45.5t36 -25t45.5 -14t60.5 -2.5v-41h-605v41h25q85 0 128 6.5t60 22.5t17 47q0 18 -4.5 32.5t-28.5 79.5l-141 377h-455l-125 -344l-12 -32 t-9.5 -26t-7 -20.5t-5.5 -16t-4.5 -11.5t-3 -9.5t-1.5 -7t-1.5 -6.5t-0.5 -5.5v-6.5q0 -14 3.5 -24.5t12.5 -18.5t18 -13.5t25.5 -9.5t28.5 -6.5t34.5 -4t35.5 -2t40 -1.5h15v-41h-506zM508 702h381l-195 515zM643 1485l221 301h285l-473 -301h-33z" />
<glyph unicode="&#xc2;" horiz-adv-x="1488" d="M6 0v41q37 1 61 4t46.5 13t37 23t30.5 39t29.5 57t31.5 81l401 1094l-20 49h190l420 -1114q22 -60 35.5 -93.5t31 -65.5t31.5 -45.5t36 -25t45.5 -14t60.5 -2.5v-41h-605v41h25q85 0 128 6.5t60 22.5t17 47q0 18 -4.5 32.5t-28.5 79.5l-141 377h-455l-125 -344l-12 -32 t-9.5 -26t-7 -20.5t-5.5 -16t-4.5 -11.5t-3 -9.5t-1.5 -7t-1.5 -6.5t-0.5 -5.5v-6.5q0 -14 3.5 -24.5t12.5 -18.5t18 -13.5t25.5 -9.5t28.5 -6.5t34.5 -4t35.5 -2t40 -1.5h15v-41h-506zM373 1483l268 303h170l266 -303h-37l-311 188l-319 -188h-37zM508 702h381l-195 515z " />
<glyph unicode="&#xc3;" horiz-adv-x="1488" d="M6 0v41q37 1 61 4t46.5 13t37 23t30.5 39t29.5 57t31.5 81l401 1094l-20 49h190l420 -1114q22 -60 35.5 -93.5t31 -65.5t31.5 -45.5t36 -25t45.5 -14t60.5 -2.5v-41h-605v41h25q85 0 128 6.5t60 22.5t17 47q0 18 -4.5 32.5t-28.5 79.5l-141 377h-455l-125 -344l-12 -32 t-9.5 -26t-7 -20.5t-5.5 -16t-4.5 -11.5t-3 -9.5t-1.5 -7t-1.5 -6.5t-0.5 -5.5v-6.5q0 -14 3.5 -24.5t12.5 -18.5t18 -13.5t25.5 -9.5t28.5 -6.5t34.5 -4t35.5 -2t40 -1.5h15v-41h-506zM360 1468q6 122 66 196.5t152 74.5q45 0 82.5 -13t191.5 -81q74 -35 119 -35 q33 0 59 16t42 45t20 68h30q0 -62 -10 -101.5t-35 -74.5q-34 -46 -78.5 -71.5t-91.5 -25.5q-24 0 -50 6.5t-59.5 20.5t-86.5 39q-86 40 -122 51.5t-71 11.5q-52 0 -84.5 -33.5t-38.5 -93.5h-35zM508 702h381l-195 515z" />
<glyph unicode="&#xc4;" horiz-adv-x="1488" d="M6 0v41q37 1 61 4t46.5 13t37 23t30.5 39t29.5 57t31.5 81l401 1094l-20 49h190l420 -1114q22 -60 35.5 -93.5t31 -65.5t31.5 -45.5t36 -25t45.5 -14t60.5 -2.5v-41h-605v41h25q85 0 128 6.5t60 22.5t17 47q0 18 -4.5 32.5t-28.5 79.5l-141 377h-455l-125 -344l-12 -32 t-9.5 -26t-7 -20.5t-5.5 -16t-4.5 -11.5t-3 -9.5t-1.5 -7t-1.5 -6.5t-0.5 -5.5v-6.5q0 -14 3.5 -24.5t12.5 -18.5t18 -13.5t25.5 -9.5t28.5 -6.5t34.5 -4t35.5 -2t40 -1.5h15v-41h-506zM358 1608q0 44 33 76t78 32q46 0 78.5 -32t32.5 -78t-32.5 -78.5t-78.5 -32.5 q-23 0 -43.5 9t-35 24t-23.5 36t-9 44zM508 702h381l-195 515zM901 1608q0 44 33 76t78 32q46 0 78 -32t32 -78q0 -44 -33 -77.5t-77 -33.5q-46 0 -78.5 33t-32.5 80z" />
<glyph unicode="&#xc5;" horiz-adv-x="1488" d="M6 0v41q37 1 61 4t46.5 12.5t36.5 22.5t30.5 39.5t29.5 57.5t32 81l409 1102q-125 63 -125 194q0 88 62.5 150.5t150.5 62.5t150.5 -62.5t62.5 -150.5q0 -63 -32.5 -114t-90.5 -80l404 -1073q22 -60 35.5 -93.5t31 -65.5t31.5 -45.5t36 -25t45.5 -14t60.5 -2.5v-41h-605 v41h25q85 0 128 6.5t60 22.5t17 47q0 18 -4.5 32.5t-28.5 79.5l-141 377h-455l-125 -344l-12 -32t-9.5 -26t-7 -20.5t-5.5 -16t-4.5 -11.5t-3 -9.5t-1.5 -7t-1.5 -6.5t-0.5 -5.5v-6.5q0 -14 3.5 -24.5t12.5 -18.5t18 -13.5t25.5 -9.5t28.5 -6.5t34.5 -4t35.5 -2t40 -1.5h15 v-41h-506zM508 702h381l-195 515zM584 1554q0 -41 21 -77t56.5 -57t75.5 -21q66 0 112 45t46 110t-45.5 110.5t-110 45.5t-110 -45.5t-45.5 -110.5z" />
<glyph unicode="&#xc6;" horiz-adv-x="1921" d="M-115 0v43q86 6 133.5 44.5t122.5 162.5l529 870q48 77 58.5 99t10.5 43q0 39 -34 53q-25 10 -91 10h-14v41h1120l19 -305h-39l-10 41q-29 126 -68 162q-17 17 -32.5 19.5t-88.5 2.5h-401v-538h303q42 0 65 1t45 8t32 15.5t20.5 29.5t16 44.5t13.5 66.5h39v-419h-39 q-11 90 -32 127q-17 31 -44 39t-112 8h-307v-422q0 -71 5.5 -99t22.5 -45q17 -14 39 -18t80 -4h242q102 0 141.5 13t73.5 57q56 75 80 178h39l-29 -328h-1159v43h106q105 0 144 45q24 25 28.5 51t4.5 140v264h-484l-190 -310q-56 -91 -56 -118q0 -35 38 -51t130 -21v-43 h-471zM481 623h437v688h-21z" />
<glyph unicode="&#xc7;" horiz-adv-x="1601" d="M117 666q0 211 100.5 379t280.5 262t407 94q194 0 389 -72q55 -18 76 -18q18 0 37 12h35l18 -315h-41q-55 154 -193 247t-308 93q-119 0 -232.5 -45t-191.5 -123q-83 -83 -127.5 -203.5t-44.5 -263.5q0 -144 48.5 -271.5t131.5 -219t198.5 -144.5t245.5 -53 q109 0 214.5 38.5t182.5 106.5q75 66 136 174h43q-18 -61 -62 -161.5t-80 -159.5q-20 4 -45 4q-29 0 -53 -4t-137 -29q-133 -29 -275 -29l-61 -84h22q88 0 147.5 -52.5t59.5 -129.5q0 -86 -73.5 -147.5t-176.5 -61.5q-62 0 -126 21l18 34q48 -10 78 -10q63 0 109 36t46 87 q0 41 -26 64.5t-72 23.5q-67 0 -182 -47l192 268q-237 17 -397 123q-151 98 -231 246.5t-80 329.5z" />
<glyph unicode="&#xc8;" horiz-adv-x="1290" d="M-8 0v43h53q126 0 172 35q28 22 35.5 56t7.5 142v814q0 102 -5.5 136t-25.5 56q-40 43 -145 43h-47v41h1055l18 -305h-41q-14 115 -55 182q-22 35 -52 43t-137 8h-383v-546h316q100 0 128.5 7t45.5 36q24 41 33 122h41v-419h-41q-9 81 -35 127q-19 32 -47 39.5t-131 7.5 h-310v-400q0 -79 4.5 -109t16.5 -48q17 -20 42 -25.5t103 -5.5h221q119 0 164 11t76 46q57 67 86 191h41l-35 -328h-1169zM264 1786h285l221 -301h-33z" />
<glyph unicode="&#xc9;" horiz-adv-x="1290" d="M-8 0v43h53q126 0 172 35q28 22 35.5 56t7.5 142v814q0 102 -5.5 136t-25.5 56q-40 43 -145 43h-47v41h1055l18 -305h-41q-14 115 -55 182q-22 35 -52 43t-137 8h-383v-546h316q100 0 128.5 7t45.5 36q24 41 33 122h41v-419h-41q-9 81 -35 127q-19 32 -47 39.5t-131 7.5 h-310v-400q0 -79 4.5 -109t16.5 -48q17 -20 42 -25.5t103 -5.5h221q119 0 164 11t76 46q57 67 86 191h41l-35 -328h-1169zM543 1485l221 301h285l-474 -301h-32z" />
<glyph unicode="&#xca;" horiz-adv-x="1290" d="M-8 0v43h53q126 0 172 35q28 22 35.5 56t7.5 142v814q0 102 -5.5 136t-25.5 56q-40 43 -145 43h-47v41h1055l18 -305h-41q-14 115 -55 182q-22 35 -52 43t-137 8h-383v-546h316q100 0 128.5 7t45.5 36q24 41 33 122h41v-419h-41q-9 81 -35 127q-19 32 -47 39.5t-131 7.5 h-310v-400q0 -79 4.5 -109t16.5 -48q17 -20 42 -25.5t103 -5.5h221q119 0 164 11t76 46q57 67 86 191h41l-35 -328h-1169zM272 1483l269 303h170l266 -303h-37l-311 188l-320 -188h-37z" />
<glyph unicode="&#xcb;" horiz-adv-x="1290" d="M-8 0v43h53q126 0 172 35q28 22 35.5 56t7.5 142v814q0 102 -5.5 136t-25.5 56q-40 43 -145 43h-47v41h1055l18 -305h-41q-14 115 -55 182q-22 35 -52 43t-137 8h-383v-546h316q100 0 128.5 7t45.5 36q24 41 33 122h41v-419h-41q-9 81 -35 127q-19 32 -47 39.5t-131 7.5 h-310v-400q0 -79 4.5 -109t16.5 -48q17 -20 42 -25.5t103 -5.5h221q119 0 164 11t76 46q57 67 86 191h41l-35 -328h-1169zM236 1608q0 44 33 76t77 32q46 0 78.5 -32t32.5 -78t-32.5 -78.5t-78.5 -32.5t-78 33t-32 80zM778 1608q0 44 33 76t78 32q46 0 78 -32t32 -78 q0 -44 -33 -77.5t-77 -33.5q-46 0 -78.5 33t-32.5 80z" />
<glyph unicode="&#xcc;" horiz-adv-x="702" d="M37 1786h285l221 -301h-33zM96 0v41q38 2 62.5 6.5t44 15.5t30 25.5t17 42.5t8.5 60.5t2 84.5v814q0 52 -2 84.5t-8.5 60.5t-17 42.5t-30 25.5t-44 15.5t-62.5 6.5v41h533v-41h-11q-103 0 -143 -43q-22 -23 -27.5 -57t-5.5 -135v-814q0 -114 4.5 -140.5t28.5 -51.5 q40 -43 143 -43h11v-41h-533z" />
<glyph unicode="&#xcd;" horiz-adv-x="702" d="M96 0v41q38 2 62.5 6.5t44 15.5t30 25.5t17 42.5t8.5 60.5t2 84.5v814q0 52 -2 84.5t-8.5 60.5t-17 42.5t-30 25.5t-44 15.5t-62.5 6.5v41h533v-41h-11q-103 0 -143 -43q-22 -23 -27.5 -57t-5.5 -135v-814q0 -114 4.5 -140.5t28.5 -51.5q40 -43 143 -43h11v-41h-533z M168 1485l221 301h285l-473 -301h-33z" />
<glyph unicode="&#xce;" horiz-adv-x="700" d="M-8 1483l268 303h170l266 -303h-37l-311 188l-319 -188h-37zM96 0v41q38 2 62.5 6.5t44 15.5t30 25.5t17 42.5t8.5 60.5t2 84.5v814q0 52 -2 84.5t-8.5 60.5t-17 42.5t-30 25.5t-44 15.5t-62.5 6.5v41h533v-41h-11q-103 0 -143 -43q-22 -23 -27.5 -57t-5.5 -135v-814 q0 -114 4.5 -140.5t28.5 -51.5q40 -43 143 -43h11v-41h-533z" />
<glyph unicode="&#xcf;" horiz-adv-x="702" d="M72 1608q0 44 33 76t77 32q46 0 78.5 -32t32.5 -78t-32.5 -78.5t-78.5 -32.5t-78 33t-32 80zM96 0v41q38 2 62.5 6.5t44 15.5t30 25.5t17 42.5t8.5 60.5t2 84.5v814q0 52 -2 84.5t-8.5 60.5t-17 42.5t-30 25.5t-44 15.5t-62.5 6.5v41h533v-41h-11q-103 0 -143 -43 q-22 -23 -27.5 -57t-5.5 -135v-814q0 -114 4.5 -140.5t28.5 -51.5q40 -43 143 -43h11v-41h-533zM410 1608q0 44 33 76t77 32q46 0 78.5 -32t32.5 -78q0 -44 -33.5 -77.5t-77.5 -33.5q-46 0 -78 33t-32 80z" />
<glyph unicode="&#xd0;" horiz-adv-x="1681" d="M47 0v41h35q103 0 143 43q24 25 28.5 51t4.5 141v406h-190v41h190v369q0 98 -6.5 135t-26.5 59t-55.5 30.5t-106.5 8.5h-16v41q564 20 668 20q207 0 345 -34.5t251 -114.5q123 -88 188.5 -219.5t65.5 -288.5q0 -201 -106 -370.5t-292 -266.5q-143 -73 -344 -88 q-82 -4 -229 -4h-547zM440 195q0 -66 4 -87t19 -36q15 -18 44.5 -24.5t96.5 -6.5q213 0 319 27.5t203 107.5q114 95 174 227.5t60 290.5q0 249 -127.5 416t-347.5 207q-135 24 -316 24q-39 0 -129 -4v-614h385v-41h-385v-487z" />
<glyph unicode="&#xd1;" horiz-adv-x="1814" d="M72 0v41q91 0 137 25t49 96q2 14 2 117v991q-67 52 -184 55v41h346l1034 -1079v805q0 117 -10.5 154t-48.5 57q-32 17 -156 22v41h514v-41q-142 -5 -168 -29q-23 -19 -27 -40.5t-4 -129.5v-1140h-57l-1139 1190v-887q0 -101 5 -138.5t22 -60.5q22 -28 50.5 -35t129.5 -12 l15 -2v-41h-510zM532 1460q6 122 66 196.5t152 74.5q44 0 81 -13t193 -82q72 -34 119 -34q49 0 82 35t39 94h30q0 -113 -45 -177q-71 -96 -170 -96q-35 0 -76.5 14t-119.5 52q-86 40 -122 51.5t-71 11.5q-52 0 -84.5 -33.5t-38.5 -93.5h-35z" />
<glyph unicode="&#xd2;" horiz-adv-x="1806" d="M115 672q0 147 65.5 289t177.5 239q229 201 555 201q301 0 527 -174q252 -196 252 -512q0 -208 -103.5 -380t-283 -271t-396.5 -99q-267 0 -485 139q-152 97 -230.5 241.5t-78.5 326.5zM322 723q0 -200 81 -362t224 -253.5t321 -91.5q264 0 412 211q127 180 127 424 q0 149 -48 279t-131.5 222t-201.5 145t-254 53q-207 0 -348 -144q-86 -89 -134 -216t-48 -267zM590 1786h284l222 -301h-33z" />
<glyph unicode="&#xd3;" horiz-adv-x="1806" d="M115 672q0 147 65.5 289t177.5 239q229 201 555 201q301 0 527 -174q252 -196 252 -512q0 -208 -103.5 -380t-283 -271t-396.5 -99q-267 0 -485 139q-152 97 -230.5 241.5t-78.5 326.5zM322 723q0 -200 81 -362t224 -253.5t321 -91.5q264 0 412 211q127 180 127 424 q0 149 -48 279t-131.5 222t-201.5 145t-254 53q-207 0 -348 -144q-86 -89 -134 -216t-48 -267zM719 1485l221 301h285l-473 -301h-33z" />
<glyph unicode="&#xd4;" horiz-adv-x="1806" d="M115 672q0 147 65.5 289t177.5 239q229 201 555 201q301 0 527 -174q252 -196 252 -512q0 -208 -103.5 -380t-283 -271t-396.5 -99q-267 0 -485 139q-152 97 -230.5 241.5t-78.5 326.5zM322 723q0 -200 81 -362t224 -253.5t321 -91.5q264 0 412 211q127 180 127 424 q0 149 -48 279t-131.5 222t-201.5 145t-254 53q-207 0 -348 -144q-86 -89 -134 -216t-48 -267zM545 1483l268 303h170l266 -303h-37l-311 188l-319 -188h-37z" />
<glyph unicode="&#xd5;" horiz-adv-x="1806" d="M115 672q0 147 65.5 289t177.5 239q229 201 555 201q301 0 527 -174q252 -196 252 -512q0 -208 -103.5 -380t-283 -271t-396.5 -99q-267 0 -485 139q-152 97 -230.5 241.5t-78.5 326.5zM322 723q0 -200 81 -362t224 -253.5t321 -91.5q264 0 412 211q127 180 127 424 q0 149 -48 279t-131.5 222t-201.5 145t-254 53q-207 0 -348 -144q-86 -89 -134 -216t-48 -267zM520 1468q6 122 65.5 196.5t151.5 74.5q45 0 83.5 -13t191.5 -81q74 -35 118 -35q49 0 82 35t39 94h31q0 -112 -45 -176q-72 -97 -170 -97q-60 0 -197 66q-87 40 -122 51.5 t-70 11.5q-52 0 -84.5 -33.5t-38.5 -93.5h-35z" />
<glyph unicode="&#xd6;" horiz-adv-x="1806" d="M115 672q0 147 65.5 289t177.5 239q229 201 555 201q301 0 527 -174q252 -196 252 -512q0 -208 -103.5 -380t-283 -271t-396.5 -99q-267 0 -485 139q-152 97 -230.5 241.5t-78.5 326.5zM322 723q0 -200 81 -362t224 -253.5t321 -91.5q264 0 412 211q127 180 127 424 q0 149 -48 279t-131.5 222t-201.5 145t-254 53q-207 0 -348 -144q-86 -89 -134 -216t-48 -267zM522 1608q0 44 33 76t78 32q46 0 78 -32t32 -78t-32 -78.5t-78 -32.5t-78.5 33t-32.5 80zM1065 1608q0 44 33 76t78 32q46 0 78 -32t32 -78q0 -44 -33 -77.5t-77 -33.5 q-46 0 -78.5 33t-32.5 80z" />
<glyph unicode="&#xd7;" d="M172 379l320 319l-320 320l47 47l320 -320l319 320l47 -47l-319 -320l319 -319l-47 -47l-319 319l-320 -319z" />
<glyph unicode="&#xd8;" horiz-adv-x="1806" d="M117 664q0 206 104 375t286.5 265.5t405.5 96.5q262 0 476 -137l172 196l32 -28l-168 -193q136 -105 201.5 -233t65.5 -291q0 -208 -103.5 -380t-283.5 -271t-398 -99q-257 0 -477 135l-209 -239l-33 26l207 236q-132 92 -205 234t-73 307zM324 715q0 -290 165 -482 l809 926q-179 191 -446 191q-121 0 -222.5 -53t-167.5 -141.5t-102 -202.5t-36 -238zM518 201q188 -185 426 -185q268 0 416 211q127 180 127 422q0 279 -160 477z" />
<glyph unicode="&#xd9;" horiz-adv-x="1763" d="M51 1327v39h565v-41h-18q-103 0 -143 -43q-11 -12 -15.5 -18.5t-9.5 -17t-6 -32t-1.5 -47t-0.5 -77.5v-437q0 -105 2 -147t10 -82q35 -164 163 -254t327 -90q215 0 345 100.5t152 290.5q2 25 2 168v387q0 129 -10.5 180.5t-42.5 77.5q-24 22 -57.5 30t-104.5 11v41h516 v-41q-58 -3 -92.5 -14t-60.5 -35q-31 -31 -39 -71t-8 -169v-393q0 -131 -2 -168t-13 -88q-44 -203 -235 -326q-155 -96 -397 -96q-371 0 -543 234q-57 78 -75.5 161.5t-18.5 260.5v471q0 59 -1.5 92.5t-9.5 63t-18 42.5t-34 22.5t-51 11.5t-75 3zM514 1786h285l221 -301h-33 z" />
<glyph unicode="&#xda;" horiz-adv-x="1763" d="M51 1327v39h565v-41h-18q-103 0 -143 -43q-11 -12 -15.5 -18.5t-9.5 -17t-6 -32t-1.5 -47t-0.5 -77.5v-437q0 -105 2 -147t10 -82q35 -164 163 -254t327 -90q215 0 345 100.5t152 290.5q2 25 2 168v387q0 129 -10.5 180.5t-42.5 77.5q-24 22 -57.5 30t-104.5 11v41h516 v-41q-58 -3 -92.5 -14t-60.5 -35q-31 -31 -39 -71t-8 -169v-393q0 -131 -2 -168t-13 -88q-44 -203 -235 -326q-155 -96 -397 -96q-371 0 -543 234q-57 78 -75.5 161.5t-18.5 260.5v471q0 59 -1.5 92.5t-9.5 63t-18 42.5t-34 22.5t-51 11.5t-75 3zM793 1485l221 301h284 l-473 -301h-32z" />
<glyph unicode="&#xdb;" horiz-adv-x="1763" d="M51 1327v39h565v-41h-18q-103 0 -143 -43q-11 -12 -15.5 -18.5t-9.5 -17t-6 -32t-1.5 -47t-0.5 -77.5v-437q0 -105 2 -147t10 -82q35 -164 163 -254t327 -90q215 0 345 100.5t152 290.5q2 25 2 168v387q0 129 -10.5 180.5t-42.5 77.5q-24 22 -57.5 30t-104.5 11v41h516 v-41q-58 -3 -92.5 -14t-60.5 -35q-31 -31 -39 -71t-8 -169v-393q0 -131 -2 -168t-13 -88q-44 -203 -235 -326q-155 -96 -397 -96q-371 0 -543 234q-57 78 -75.5 161.5t-18.5 260.5v471q0 59 -1.5 92.5t-9.5 63t-18 42.5t-34 22.5t-51 11.5t-75 3zM549 1483l268 303h170 l266 -303h-36l-312 188l-319 -188h-37z" />
<glyph unicode="&#xdc;" horiz-adv-x="1763" d="M51 1327v39h565v-41h-18q-103 0 -143 -43q-11 -12 -15.5 -18.5t-9.5 -17t-6 -32t-1.5 -47t-0.5 -77.5v-437q0 -105 2 -147t10 -82q35 -164 163 -254t327 -90q215 0 345 100.5t152 290.5q2 25 2 168v387q0 129 -10.5 180.5t-42.5 77.5q-24 22 -57.5 30t-104.5 11v41h516 v-41q-58 -3 -92.5 -14t-60.5 -35q-31 -31 -39 -71t-8 -169v-393q0 -131 -2 -168t-13 -88q-44 -203 -235 -326q-155 -96 -397 -96q-371 0 -543 234q-57 78 -75.5 161.5t-18.5 260.5v471q0 59 -1.5 92.5t-9.5 63t-18 42.5t-34 22.5t-51 11.5t-75 3zM506 1608q0 44 33 76t77 32 q46 0 78.5 -32t32.5 -78t-32.5 -78.5t-78.5 -32.5q-30 0 -55.5 15t-40 41t-14.5 57zM1049 1608q0 44 33 76t77 32q46 0 78.5 -32t32.5 -78q0 -44 -33.5 -77.5t-77.5 -33.5q-46 0 -78 33t-32 80z" />
<glyph unicode="&#xdd;" horiz-adv-x="1501" d="M-31 1323v43h586v-43q-82 0 -119 -12.5t-37 -40.5q0 -21 12 -45t58 -97l317 -489l277 465q41 69 54 98.5t13 48.5q0 38 -30.5 55t-100.5 17h-14v43h498v-43q-113 -7 -175 -56.5t-149 -195.5l-317 -536v-259q0 -115 4.5 -141t27.5 -51q40 -43 144 -43h29v-41h-605v41h41 q104 0 144 43q23 25 27.5 50.5t4.5 141.5v234l-389 608q-36 56 -62 90t-51 58.5t-53 35.5t-58 15.5t-77 5.5zM676 1485l221 301h285l-473 -301h-33z" />
<glyph unicode="&#xde;" horiz-adv-x="1239" d="M47 1325v41h596v-41h-25q-97 0 -136.5 -35t-39.5 -123v-73q87 18 176 18q255 0 399 -102t144 -285q0 -193 -144 -306.5t-390 -113.5q-77 0 -185 17v-46q0 -134 21 -174q36 -61 155 -61h74v-41h-610v41l31 2q69 5 93.5 11.5t37.5 27.5q12 19 14 41t2 139v879 q0 91 -3.5 113.5t-18.5 41.5q-17 20 -38 24.5t-100 4.5h-53zM442 365q80 -17 125 -17q172 0 280.5 107t108.5 276q0 88 -31 162.5t-83 114.5q-85 65 -264 65q-62 0 -136 -10v-698z" />
<glyph unicode="&#xdf;" horiz-adv-x="1122" d="M41 0v41q26 1 39 2t30.5 5t25 5t17.5 10.5t13.5 13.5t8.5 22t5.5 28t2 39t1.5 47.5v60.5v533q0 207 11.5 294t48.5 156q117 220 354 220q156 0 263.5 -94.5t107.5 -231.5q0 -115 -83.5 -207t-234.5 -143q133 -20 234 -99q155 -123 155 -313q0 -202 -145 -326 q-107 -90 -223 -90q-44 0 -72.5 20t-28.5 52q0 25 15 42t37 17q17 0 39 -12q73 -37 94 -37q51 0 86 87t35 216q0 149 -47 252t-130 140q-68 28 -165 28q-13 0 -21 -2v35q146 13 227.5 97.5t81.5 221.5q0 132 -69 213.5t-179 81.5q-78 0 -136 -45t-87 -129 q-15 -46 -18.5 -100t-3.5 -246v-631q0 -124 2 -148t16 -44q25 -41 115 -41h10v-41h-432z" />
<glyph unicode="&#xe0;" horiz-adv-x="847" d="M2 1442h244l282 -369h-32zM63 154q0 82 57.5 129t201.5 86q115 32 196 84v174q0 62 -8 89.5t-35 57.5q-52 55 -119 55q-50 0 -92.5 -34t-42.5 -74q0 -14 12 -39l-149 -74q-8 21 -8 33q0 62 100 145q68 57 119.5 82t105.5 25q66 0 130.5 -32t99.5 -83q23 -31 28 -59.5 t5 -130.5v-293q0 -111 1 -135.5t7 -42.5q12 -37 51 -37q43 0 106 47l11 -31q-61 -55 -121 -89t-96 -34q-46 0 -72 34.5t-29 98.5q-21 -12 -51 -36q-69 -58 -111.5 -77.5t-101.5 -19.5q-86 0 -140.5 50.5t-54.5 130.5zM205 180q0 -54 37.5 -91.5t91.5 -37.5q26 0 49.5 11.5 t85.5 54.5q13 10 49 30v263q-47 -28 -190 -86q-66 -28 -94.5 -61t-28.5 -83z" />
<glyph unicode="&#xe1;" horiz-adv-x="847" d="M63 154q0 82 57.5 129t201.5 86q115 32 196 84v174q0 62 -8 89.5t-35 57.5q-52 55 -119 55q-50 0 -92.5 -34t-42.5 -74q0 -14 12 -39l-149 -74q-8 21 -8 33q0 62 100 145q68 57 119.5 82t105.5 25q66 0 130.5 -32t99.5 -83q23 -31 28 -59.5t5 -130.5v-293 q0 -111 1 -135.5t7 -42.5q12 -37 51 -37q43 0 106 47l11 -31q-61 -55 -121 -89t-96 -34q-46 0 -72 34.5t-29 98.5q-21 -12 -51 -36q-69 -58 -111.5 -77.5t-101.5 -19.5q-86 0 -140.5 50.5t-54.5 130.5zM205 180q0 -54 37.5 -91.5t91.5 -37.5q26 0 49.5 11.5t85.5 54.5 q13 10 49 30v263q-47 -28 -190 -86q-66 -28 -94.5 -61t-28.5 -83zM295 1073l283 369h243l-493 -369h-33z" />
<glyph unicode="&#xe2;" horiz-adv-x="847" d="M63 154q0 82 57.5 129t201.5 86q115 32 196 84v174q0 62 -8 89.5t-35 57.5q-52 55 -119 55q-50 0 -92.5 -34t-42.5 -74q0 -14 12 -39l-149 -74q-8 21 -8 33q0 62 100 145q68 57 119.5 82t105.5 25q66 0 130.5 -32t99.5 -83q23 -31 28 -59.5t5 -130.5v-293 q0 -111 1 -135.5t7 -42.5q12 -37 51 -37q43 0 106 47l11 -31q-61 -55 -121 -89t-96 -34q-46 0 -72 34.5t-29 98.5q-21 -12 -51 -36q-69 -58 -111.5 -77.5t-101.5 -19.5q-86 0 -140.5 50.5t-54.5 130.5zM117 1049v36l237 396h64l231 -396v-36l-272 274zM205 180 q0 -54 37.5 -91.5t91.5 -37.5q26 0 49.5 11.5t85.5 54.5q13 10 49 30v263q-47 -28 -190 -86q-66 -28 -94.5 -61t-28.5 -83z" />
<glyph unicode="&#xe3;" horiz-adv-x="847" d="M63 154q0 82 57.5 129t201.5 86q115 32 196 84v174q0 62 -8 89.5t-35 57.5q-52 55 -119 55q-50 0 -92.5 -34t-42.5 -74q0 -14 12 -39l-149 -74q-8 21 -8 33q0 62 100 145q68 57 119.5 82t105.5 25q66 0 130.5 -32t99.5 -83q23 -31 28 -59.5t5 -130.5v-293 q0 -111 1 -135.5t7 -42.5q12 -37 51 -37q43 0 106 47l11 -31q-61 -55 -121 -89t-96 -34q-46 0 -72 34.5t-29 98.5q-21 -12 -51 -36q-69 -58 -111.5 -77.5t-101.5 -19.5q-86 0 -140.5 50.5t-54.5 130.5zM94 1102q6 121 39 170q52 80 139 80q37 0 67.5 -13.5t98.5 -62.5 q53 -37 78 -49.5t47 -12.5q46 0 69.5 32.5t29.5 103.5h24v-21q0 -98 -48 -161.5t-122 -63.5q-35 0 -64.5 13t-93.5 57q-58 39 -84 52t-47 13q-93 0 -108 -137h-25zM205 180q0 -54 37.5 -91.5t91.5 -37.5q26 0 49.5 11.5t85.5 54.5q13 10 49 30v263q-47 -28 -190 -86 q-66 -28 -94.5 -61t-28.5 -83z" />
<glyph unicode="&#xe4;" horiz-adv-x="847" d="M63 154q0 82 57.5 129t201.5 86q115 32 196 84v174q0 62 -8 89.5t-35 57.5q-52 55 -119 55q-50 0 -92.5 -34t-42.5 -74q0 -14 12 -39l-149 -74q-8 21 -8 33q0 62 100 145q68 57 119.5 82t105.5 25q66 0 130.5 -32t99.5 -83q23 -31 28 -59.5t5 -130.5v-293 q0 -111 1 -135.5t7 -42.5q12 -37 51 -37q43 0 106 47l11 -31q-61 -55 -121 -89t-96 -34q-46 0 -72 34.5t-29 98.5q-21 -12 -51 -36q-69 -58 -111.5 -77.5t-101.5 -19.5q-86 0 -140.5 50.5t-54.5 130.5zM115 1231q0 40 29 68t69 28t68 -28t28 -68t-29 -69t-67 -29 q-41 0 -69.5 28.5t-28.5 69.5zM205 180q0 -54 37.5 -91.5t91.5 -37.5q26 0 49.5 11.5t85.5 54.5q13 10 49 30v263q-47 -28 -190 -86q-66 -28 -94.5 -61t-28.5 -83zM461 1231q0 39 28.5 67.5t67.5 28.5q40 0 69 -29t29 -69q0 -38 -29 -67t-67 -29q-41 0 -69.5 28.5 t-28.5 69.5z" />
<glyph unicode="&#xe5;" horiz-adv-x="847" d="M63 154q0 82 57.5 129t201.5 86q115 32 196 84v174q0 62 -8 89.5t-35 57.5q-52 55 -119 55q-50 0 -92.5 -34t-42.5 -74q0 -14 12 -39l-149 -74q-8 21 -8 33q0 62 100 145q68 57 119.5 82t105.5 25q66 0 130.5 -32t99.5 -83q23 -31 28 -59.5t5 -130.5v-293 q0 -111 1 -135.5t7 -42.5q12 -37 51 -37q43 0 106 47l11 -31q-61 -55 -121 -89t-96 -34q-46 0 -72 34.5t-29 98.5q-21 -12 -51 -36q-69 -58 -111.5 -77.5t-101.5 -19.5q-86 0 -140.5 50.5t-54.5 130.5zM203 1219q0 80 59 138t141 58t140.5 -59t58.5 -142q0 -82 -58.5 -140 t-140.5 -58q-84 0 -142 59t-58 144zM205 180q0 -54 37.5 -91.5t91.5 -37.5q26 0 49.5 11.5t85.5 54.5q13 10 49 30v263q-47 -28 -190 -86q-66 -28 -94.5 -61t-28.5 -83zM254 1217q0 -62 43 -106t106 -44q60 0 104 43.5t44 103.5q0 62 -44.5 106t-105.5 44 q-60 0 -103.5 -43.5t-43.5 -103.5z" />
<glyph unicode="&#xe6;" horiz-adv-x="1380" d="M82 152q0 99 84 149q33 20 64 31t120 33q106 25 205 86v157q0 64 -8 94.5t-33 59.5q-54 63 -123 63q-60 0 -102.5 -34.5t-42.5 -81.5q0 -11 6 -27q2 -4 2 -8l-145 -66q-9 21 -9 33q0 37 32 76.5t106 95.5q108 80 190 80q72 0 139.5 -36.5t104.5 -94.5q118 133 299 133 q107 0 173 -48t118 -165q21 -49 51 -76v-39h-615q-2 -29 -2 -59q0 -136 29 -225q29 -86 106 -141.5t168 -55.5q75 0 135 30.5t128 102.5l26 -26q-189 -220 -370 -220q-95 0 -175.5 49t-134.5 140q-66 -83 -158 -136t-171 -53q-83 0 -140 52t-57 127zM227 184 q0 -60 35.5 -96.5t93.5 -36.5q88 0 199 105v252q-51 -37 -168 -76q-92 -29 -126 -60.5t-34 -87.5zM702 608h422q-15 109 -70.5 175.5t-131.5 66.5q-91 0 -148.5 -69t-71.5 -173z" />
<glyph unicode="&#xe7;" horiz-adv-x="919" d="M80 397q0 134 69 248.5t186.5 182t254.5 67.5q98 0 172 -37.5t74 -87.5q0 -25 -20.5 -46.5t-45.5 -21.5q-52 0 -127 72q-69 66 -133 66q-110 0 -197.5 -120t-87.5 -271q0 -163 90.5 -275.5t221.5 -112.5q80 0 143.5 38t126.5 124l33 -20q-62 -103 -156 -164t-197 -64 q-11 -48 -28 -92q71 -3 117.5 -47t46.5 -108q0 -116 -129 -183q-74 -42 -154 -49v39q78 19 120 54.5t42 82.5q0 44 -36.5 72.5t-100.5 32.5q24 44 35.5 75t35.5 119q-158 44 -180 56q-70 43 -123 154t-53 216z" />
<glyph unicode="&#xe8;" horiz-adv-x="937" d="M61 1442h244l283 -369h-33zM84 424q0 126 57 236t156 176q88 59 215 59q167 0 252 -107q18 -21 27 -37t36 -75q20 -45 43 -68v-35h-641q-8 -49 -8 -98q0 -167 96 -280t238 -113q83 0 149.5 35t129.5 110l24 -26q-67 -82 -149 -144q-107 -84 -242 -84q-161 0 -272 130.5 t-111 320.5zM236 614h450q-17 108 -77.5 173t-143.5 65q-82 0 -141 -61.5t-88 -176.5z" />
<glyph unicode="&#xe9;" horiz-adv-x="937" d="M82 424q0 126 57 236t156 176q88 59 215 59q167 0 252 -107q18 -21 27 -37t36 -75q20 -45 43 -68v-35h-641q-8 -49 -8 -98q0 -167 96 -280t238 -113q83 0 149 34.5t129 110.5l25 -26q-67 -82 -149 -144q-107 -84 -242 -84q-161 0 -272 130.5t-111 320.5zM233 614h451 q-17 108 -77.5 173t-143.5 65q-82 0 -141.5 -61.5t-88.5 -176.5zM367 1073l282 369h244l-494 -369h-32z" />
<glyph unicode="&#xea;" horiz-adv-x="937" d="M82 424q0 126 57 236t156 176q88 59 215 59q167 0 252 -107q18 -21 27 -37t36 -75q20 -45 43 -68v-35h-641q-8 -49 -8 -98q0 -167 96 -280t238 -113q83 0 149 34.5t129 110.5l25 -26q-67 -82 -149 -144q-107 -84 -242 -84q-161 0 -272 130.5t-111 320.5zM203 1049v36 l237 396h64l231 -396v-36l-272 274zM233 614h451q-17 108 -77.5 173t-143.5 65q-82 0 -141.5 -61.5t-88.5 -176.5z" />
<glyph unicode="&#xeb;" horiz-adv-x="937" d="M82 424q0 126 57 236t156 176q88 59 215 59q167 0 252 -107q18 -21 27 -37t36 -75q20 -45 43 -68v-35h-641q-8 -49 -8 -98q0 -167 96 -280t238 -113q83 0 149 34.5t129 110.5l25 -26q-67 -82 -149 -144q-107 -84 -242 -84q-161 0 -272 130.5t-111 320.5zM158 1231 q0 40 29 68t69 28t68 -28t28 -68t-29 -69t-67 -29q-41 0 -69.5 29t-28.5 69zM233 614h451q-17 108 -77.5 173t-143.5 65q-82 0 -141.5 -61.5t-88.5 -176.5zM584 1231q0 39 28.5 67.5t67.5 28.5q41 0 69.5 -28t28.5 -68t-29 -69t-67 -29q-41 0 -69.5 28.5t-28.5 69.5z" />
<glyph unicode="&#xec;" horiz-adv-x="571" d="M-150 1442h244l283 -369h-33zM37 0v41q49 5 70.5 8.5t47.5 13t34.5 20.5t17.5 36t10.5 55.5t1.5 81.5v367q0 84 -13 101t-93 34q-3 1 -5 1.5t-4 0.5l-55 12v35l285 98h31v-649q0 -97 3.5 -122t22.5 -48q19 -22 46 -31.5t85 -13.5v-41h-485z" />
<glyph unicode="&#xed;" horiz-adv-x="571" d="M37 0v41q49 5 70.5 8.5t47.5 13t34.5 20.5t17.5 36t10.5 55.5t1.5 81.5v367q0 84 -13 101t-93 34q-3 1 -5 1.5t-4 0.5l-55 12v35l285 98h31v-649q0 -97 3.5 -122t22.5 -48q19 -22 46 -31.5t85 -13.5v-41h-485zM117 1073l282 369h244l-493 -369h-33z" />
<glyph unicode="&#xee;" horiz-adv-x="571" d="M-27 1049v36l238 396h63l232 -396v-36l-273 274zM37 0v41q49 5 70.5 8.5t47.5 13t34.5 20.5t17.5 36t10.5 55.5t1.5 81.5v367q0 84 -13 101t-93 34q-3 1 -5 1.5t-4 0.5l-55 12v35l285 98h31v-649q0 -97 3.5 -122t22.5 -48q19 -22 46 -31.5t85 -13.5v-41h-485z" />
<glyph unicode="&#xef;" horiz-adv-x="571" d="M16 1231q0 39 29.5 67.5t69.5 28.5t68 -28t28 -68t-29 -69t-67 -29q-41 0 -70 29t-29 69zM37 0v41q49 5 70.5 8.5t47.5 13t34.5 20.5t17.5 36t10.5 55.5t1.5 81.5v367q0 84 -13 101t-93 34q-3 1 -5 1.5t-4 0.5l-55 12v35l285 98h31v-649q0 -97 3.5 -122t22.5 -48 q19 -22 46 -31.5t85 -13.5v-41h-485zM334 1231q0 39 28.5 67.5t67.5 28.5q41 0 69.5 -28t28.5 -68t-29 -69t-67 -29q-41 0 -69.5 28.5t-28.5 69.5z" />
<glyph unicode="&#xf0;" horiz-adv-x="1107" d="M82 438q0 194 125 322q63 63 154.5 101t183.5 38q67 0 119.5 -17t111.5 -57q-31 115 -76 195.5t-120 155.5l-222 -144l-20 33l211 137q-76 72 -195 139l27 48q118 -59 231 -140l219 144l21 -33l-207 -135q186 -142 283.5 -335.5t97.5 -418.5q0 -250 -149 -381 q-132 -117 -322 -117q-206 0 -339.5 131.5t-133.5 333.5zM240 508q0 -91 27.5 -183t74.5 -163q41 -63 107 -100t135 -37q124 0 203 97t79 249q0 107 -34.5 209.5t-90.5 162.5q-45 49 -104 77t-115 28q-121 0 -201.5 -97t-80.5 -243z" />
<glyph unicode="&#xf1;" horiz-adv-x="1150" d="M57 0v41h9q32 0 63.5 13.5t48.5 33.5q17 22 22 54t5 130v289q0 135 -8 154q-7 14 -26.5 22t-72.5 21l-35 8v33l254 94h33v-191q118 85 220 132t167 47q60 0 110 -31t79 -88q41 -75 41 -244q0 -99 -17 -352q-2 -12 -2 -33q0 -53 31.5 -72.5t116.5 -19.5h24v-41h-473v41 q70 6 100 21.5t44 52.5q12 32 20 158.5t8 269.5q0 119 -35 174q-20 34 -59.5 55t-83.5 21q-38 0 -72.5 -12.5t-109.5 -53.5q-74 -39 -109 -65v-388q0 -122 3 -146.5t18 -45.5q15 -23 40.5 -32t77.5 -9h9v-41h-441zM293 1135q6 121 39 170q51 79 139 79q38 0 68.5 -13.5 t97.5 -61.5q53 -37 78 -49.5t47 -12.5q46 0 69 32t29 103h25v-20q0 -98 -48 -161.5t-122 -63.5q-36 0 -65 12.5t-93 56.5q-58 40 -84.5 53t-46.5 13q-94 0 -109 -137h-24z" />
<glyph unicode="&#xf2;" horiz-adv-x="1110" d="M82 438q0 192 136 323.5t335 131.5q201 0 338 -133.5t137 -329.5q0 -192 -135.5 -324.5t-331.5 -132.5q-98 0 -192 38t-160 104q-127 127 -127 323zM229 1442h244l283 -369h-33zM246 500q0 -129 45.5 -238.5t124 -173t170.5 -63.5q120 0 199 100.5t79 251.5 q0 124 -46.5 231.5t-125 170.5t-168.5 63q-120 0 -199 -97t-79 -245z" />
<glyph unicode="&#xf3;" horiz-adv-x="1110" d="M82 438q0 192 136 323.5t335 131.5q201 0 338 -133.5t137 -329.5q0 -192 -135.5 -324.5t-331.5 -132.5q-98 0 -192 38t-160 104q-127 127 -127 323zM246 500q0 -129 45.5 -238.5t124 -173t170.5 -63.5q120 0 199 100.5t79 251.5q0 124 -46.5 231.5t-125 170.5t-168.5 63 q-120 0 -199 -97t-79 -245zM344 1073l283 369h243l-493 -369h-33z" />
<glyph unicode="&#xf4;" horiz-adv-x="1110" d="M82 438q0 192 136 323.5t335 131.5q201 0 338 -133.5t137 -329.5q0 -192 -135.5 -324.5t-331.5 -132.5q-98 0 -192 38t-160 104q-127 127 -127 323zM246 500q0 -129 45.5 -238.5t124 -173t170.5 -63.5q120 0 199 100.5t79 251.5q0 124 -46.5 231.5t-125 170.5t-168.5 63 q-120 0 -199 -97t-79 -245zM289 1049v36l237 396h64l231 -396v-36l-272 274z" />
<glyph unicode="&#xf5;" horiz-adv-x="1110" d="M82 438q0 192 136 323.5t335 131.5q201 0 338 -133.5t137 -329.5q0 -192 -135.5 -324.5t-331.5 -132.5q-98 0 -192 38t-160 104q-127 127 -127 323zM246 500q0 -129 45.5 -238.5t124 -173t170.5 -63.5q120 0 199 100.5t79 251.5q0 124 -46.5 231.5t-125 170.5t-168.5 63 q-120 0 -199 -97t-79 -245zM279 1102q6 122 38 170q52 80 140 80q37 0 67.5 -13.5t98.5 -62.5q53 -37 78 -49.5t47 -12.5q46 0 69 32.5t29 103.5h24v-21q0 -98 -48 -161.5t-122 -63.5q-35 0 -63.5 13t-93.5 57q-58 39 -84 52t-47 13q-94 0 -109 -137h-24z" />
<glyph unicode="&#xf6;" horiz-adv-x="1110" d="M82 438q0 192 136 323.5t335 131.5q201 0 338 -133.5t137 -329.5q0 -192 -135.5 -324.5t-331.5 -132.5q-98 0 -192 38t-160 104q-127 127 -127 323zM246 500q0 -129 45.5 -238.5t124 -173t170.5 -63.5q120 0 199 100.5t79 251.5q0 124 -46.5 231.5t-125 170.5t-168.5 63 q-120 0 -199 -97t-79 -245zM279 1231q0 40 29 68t69 28t68 -28t28 -68t-29 -69t-67 -29q-41 0 -69.5 28.5t-28.5 69.5zM666 1231q0 39 28.5 67.5t67.5 28.5q40 0 69 -29t29 -69q0 -38 -29 -67t-67 -29q-41 0 -69.5 28.5t-28.5 69.5z" />
<glyph unicode="&#xf7;" d="M88 666v67h901v-67h-901zM459 350q0 32 23 55t57 23q32 0 54.5 -23t22.5 -55q0 -34 -22.5 -57t-56.5 -23q-32 0 -55 23t-23 57zM461 1049q0 32 23.5 54.5t56.5 22.5q32 0 54.5 -23t22.5 -54q0 -34 -22.5 -57t-54.5 -23t-56 24t-24 56z" />
<glyph unicode="&#xf8;" horiz-adv-x="1110" d="M82 432q0 198 135 329.5t338 131.5q81 0 149 -22t144 -74l125 145l31 -27l-125 -143q149 -137 149 -340q0 -193 -135 -326t-332 -133q-160 0 -297 97l-149 -172l-31 26l147 170q-149 131 -149 338zM246 498q0 -165 78 -299l440 503q-44 66 -107.5 103t-132.5 37 q-121 0 -199.5 -97t-78.5 -247zM346 162q43 -63 108.5 -100t131.5 -37q120 0 199 101t79 253q0 146 -76 289z" />
<glyph unicode="&#xf9;" horiz-adv-x="1142" d="M47 799v32l283 62v-514q0 -117 5 -154t27 -69q25 -35 70 -56.5t96 -21.5q56 0 126.5 33t136.5 90v407q0 82 -3 107t-12 41q-11 20 -27.5 26.5t-84.5 16.5l-66 10v31l338 53v-735q0 -70 45 -70q5 0 55 8l47 6v-39l-292 -90v179q-245 -179 -375 -179q-62 0 -114.5 28 t-84.5 77q-22 34 -27.5 65t-5.5 115v430q0 47 -19 67t-77 33zM162 1442h244l282 -369h-33z" />
<glyph unicode="&#xfa;" horiz-adv-x="1142" d="M47 799v32l283 62v-514q0 -117 5 -154t27 -69q25 -35 70 -56.5t96 -21.5q56 0 126.5 33t136.5 90v407q0 82 -3 107t-12 41q-11 20 -27.5 26.5t-84.5 16.5l-66 10v31l338 53v-735q0 -70 45 -70q5 0 55 8l47 6v-39l-292 -90v179q-245 -179 -375 -179q-62 0 -114.5 28 t-84.5 77q-22 34 -27.5 65t-5.5 115v430q0 47 -19 67t-77 33zM428 1073l283 369h243l-493 -369h-33z" />
<glyph unicode="&#xfb;" horiz-adv-x="1142" d="M47 799v32l283 62v-514q0 -117 5 -154t27 -69q25 -35 70 -56.5t96 -21.5q56 0 126.5 33t136.5 90v407q0 82 -3 107t-12 41q-11 20 -27.5 26.5t-84.5 16.5l-66 10v31l338 53v-735q0 -70 45 -70q5 0 55 8l47 6v-39l-292 -90v179q-245 -179 -375 -179q-62 0 -114.5 28 t-84.5 77q-22 34 -27.5 65t-5.5 115v430q0 47 -19 67t-77 33zM305 1049v36l238 396h63l232 -396v-36l-273 274z" />
<glyph unicode="&#xfc;" horiz-adv-x="1142" d="M47 799v32l283 62v-514q0 -117 5 -154t27 -69q25 -35 70 -56.5t96 -21.5q56 0 126.5 33t136.5 90v407q0 82 -3 107t-12 41q-11 20 -27.5 26.5t-84.5 16.5l-66 10v31l338 53v-735q0 -70 45 -70q5 0 55 8l47 6v-39l-292 -90v179q-245 -179 -375 -179q-62 0 -114.5 28 t-84.5 77q-22 34 -27.5 65t-5.5 115v430q0 47 -19 67t-77 33zM256 1231q0 40 29 68t69 28t68.5 -28t28.5 -68q0 -39 -29.5 -68.5t-67.5 -29.5q-41 0 -69.5 29t-28.5 69zM682 1231q0 39 28.5 67.5t67.5 28.5q41 0 70 -28t29 -68q0 -39 -29.5 -68.5t-67.5 -29.5 q-41 0 -69.5 28.5t-28.5 69.5z" />
<glyph unicode="&#xfd;" horiz-adv-x="989" d="M-31 829v41h443v-41q-68 -2 -98.5 -16t-30.5 -45q0 -17 7 -35t44 -98l221 -475l162 407q55 136 55 176q0 46 -29.5 64.5t-107.5 21.5v41h364v-41q-79 -12 -119 -62t-108 -220l-285 -713q-56 -143 -78 -191t-49 -87q-51 -68 -110 -68q-37 0 -62.5 22t-25.5 54t23 52.5 t75 33.5q62 15 97 58t83 163l43 106l-303 646q-44 93 -69.5 131t-56 55t-85.5 20zM391 1073l283 369h244l-494 -369h-33z" />
<glyph unicode="&#xfe;" d="M14 -471h21q91 0 127 47q14 21 18 56t4 135v1370l-2 67q-1 39 -18 50t-113 36v43l236 144h43v-750q119 87 197.5 123.5t144.5 36.5q84 0 159.5 -57t120.5 -152t45 -201q0 -97 -38 -188t-101.5 -157t-149.5 -106t-178 -40q-81 0 -200 43v-262q0 -112 5 -143t27 -56 q39 -39 117 -39h53v-41h-518v41zM330 176q60 -56 130.5 -88.5t131.5 -32.5q112 0 186 96t74 242q0 163 -83.5 275t-205.5 112q-106 0 -233 -108v-496z" />
<glyph unicode="&#xff;" horiz-adv-x="989" d="M-31 829v41h443v-41q-68 -2 -98.5 -16t-30.5 -45q0 -17 7 -35t44 -98l221 -475l162 407q55 136 55 176q0 46 -29.5 64.5t-107.5 21.5v41h364v-41q-79 -12 -119 -62t-108 -220l-285 -713q-56 -143 -78 -191t-49 -87q-51 -68 -110 -68q-37 0 -62.5 22t-25.5 54t23 52.5 t75 33.5q62 15 97 58t83 163l43 106l-303 646q-44 93 -69.5 131t-56 55t-85.5 20zM211 1231q0 40 29 68t69 28t68.5 -28t28.5 -68q0 -39 -29 -68.5t-68 -29.5q-41 0 -69.5 29t-28.5 69zM637 1231q0 39 28.5 67.5t67.5 28.5q41 0 69.5 -28t28.5 -68t-29 -69t-67 -29 q-41 0 -69.5 28.5t-28.5 69.5z" />
<glyph unicode="&#x152;" horiz-adv-x="2162" d="M117 672q0 173 76.5 324.5t214.5 252.5q95 69 199 99t249 30q82 0 195.5 -6t277.5 -6h639l17 -299h-41l-13 55q-23 102 -61 140q-15 15 -37 19.5t-82 4.5h-422v-538h324q88 0 113 7.5t42 39.5q21 44 31 120h39v-417h-39q-3 62 -22 112q-15 35 -43 46.5t-101 11.5h-344 v-588h375q124 0 169 12t79 53q49 59 78 179h38l-34 -324h-645l-152 2q-165 0 -272 -8q-140 -8 -158 -8q-114 0 -219.5 34t-190 97.5t-148 147.5t-98 189t-34.5 218zM307 713q0 -332 203 -529q148 -145 338 -145q80 0 146 28t104 80q31 41 40 102t9 222v465q0 164 -6 201 q-35 190 -310 190q-246 0 -385 -163.5t-139 -450.5z" />
<glyph unicode="&#x153;" horiz-adv-x="1607" d="M82 436q0 190 136.5 323.5t330.5 133.5q100 0 182 -41.5t133 -118.5q70 83 147.5 121.5t174.5 38.5q220 0 295 -199q25 -64 57 -92v-35h-594q-2 -20 -2 -45q0 -190 87 -322t212 -132q104 0 258 157l23 -24q-88 -106 -188.5 -167t-188.5 -61q-154 0 -256 160 q-120 -160 -334 -160q-201 0 -337 133t-136 330zM246 496q0 -124 45 -233t121 -173.5t161 -64.5q109 0 172.5 94t63.5 258q0 204 -84 334.5t-215 130.5q-110 0 -187 -100.5t-77 -245.5zM948 608h389q2 107 -50 176.5t-134 69.5q-83 0 -137.5 -64.5t-67.5 -181.5z" />
<glyph unicode="&#x178;" horiz-adv-x="1501" d="M-31 1323v43h586v-43q-82 0 -119 -12.5t-37 -40.5q0 -21 12 -45t58 -97l317 -489l277 465q41 69 54 98.5t13 48.5q0 38 -30.5 55t-100.5 17h-14v43h498v-43q-113 -7 -175 -56.5t-149 -195.5l-317 -536v-259q0 -115 4.5 -141t27.5 -51q40 -43 144 -43h29v-41h-605v41h41 q104 0 144 43q23 25 27.5 50.5t4.5 141.5v234l-389 608q-36 56 -62 90t-51 58.5t-53 35.5t-58 15.5t-77 5.5zM369 1608q0 44 33 76t77 32q46 0 78.5 -32t32.5 -78t-32.5 -78.5t-78.5 -32.5t-78 33t-32 80zM911 1608q0 44 33 76t78 32q46 0 78.5 -32t32.5 -78 q0 -44 -33.5 -77.5t-77.5 -33.5q-46 0 -78.5 33t-32.5 80z" />
<glyph unicode="&#x2c6;" horiz-adv-x="1024" d="M246 1049v36l237 396h64l231 -396v-36l-272 274z" />
<glyph unicode="&#x2dc;" horiz-adv-x="1024" d="M209 1102q6 121 39 170q52 80 139 80q37 0 67.5 -13.5t98.5 -62.5q53 -37 78 -49.5t47 -12.5q46 0 69 32.5t29 103.5h25v-21q0 -98 -48 -161.5t-122 -63.5q-35 0 -64.5 13t-93.5 57q-58 39 -84 52t-47 13q-94 0 -109 -137h-24z" />
<glyph unicode="&#x2000;" horiz-adv-x="893" />
<glyph unicode="&#x2001;" horiz-adv-x="1786" />
<glyph unicode="&#x2002;" horiz-adv-x="893" />
<glyph unicode="&#x2003;" horiz-adv-x="1786" />
<glyph unicode="&#x2004;" horiz-adv-x="595" />
<glyph unicode="&#x2005;" horiz-adv-x="446" />
<glyph unicode="&#x2006;" horiz-adv-x="297" />
<glyph unicode="&#x2007;" horiz-adv-x="297" />
<glyph unicode="&#x2008;" horiz-adv-x="223" />
<glyph unicode="&#x2009;" horiz-adv-x="357" />
<glyph unicode="&#x200a;" horiz-adv-x="99" />
<glyph unicode="&#x2010;" horiz-adv-x="870" d="M72 358v148h716v-148h-716z" />
<glyph unicode="&#x2011;" horiz-adv-x="870" d="M72 358v148h716v-148h-716z" />
<glyph unicode="&#x2012;" horiz-adv-x="870" d="M72 358v148h716v-148h-716z" />
<glyph unicode="&#x2013;" horiz-adv-x="1097" d="M-12 500v98h1124v-98h-1124z" />
<glyph unicode="&#x2014;" horiz-adv-x="2197" d="M-12 500v98h2222v-98h-2222z" />
<glyph unicode="&#x2018;" horiz-adv-x="571" d="M150 1128q0 101 68 191t175 131l15 -41q-78 -44 -123 -102t-45 -115q0 -21 8 -34t20 -13l6 1q5 1 13 2l16 2t15 2t10 1q40 0 67 -29.5t27 -70.5q0 -46 -34 -77.5t-85 -31.5q-66 0 -109.5 52.5t-43.5 131.5z" />
<glyph unicode="&#x2019;" horiz-adv-x="503" d="M117 1339q0 46 34 78.5t85 32.5q66 0 109.5 -52.5t43.5 -131.5q0 -101 -68.5 -191t-175.5 -131l-14 39q80 48 124 104.5t44 114.5q0 47 -29 47q-1 0 -27 -5t-34 -5q-38 0 -65 29.5t-27 70.5z" />
<glyph unicode="&#x201a;" horiz-adv-x="571" d="M150 72q0 46 33.5 78t84.5 32q66 0 110 -52.5t44 -131.5q0 -101 -68 -191t-176 -133l-14 41q80 46 124 103.5t44 115.5q0 48 -29 48q-1 0 -26.5 -5.5t-34.5 -5.5q-38 0 -65 30t-27 71z" />
<glyph unicode="&#x201c;" horiz-adv-x="1052" d="M160 1128q0 101 68 191t175 131l15 -41q-78 -44 -123 -102t-45 -115q0 -21 8.5 -34t20.5 -13l5 1q6 1 13.5 2t16 2t15.5 2t9 1q40 0 67 -29.5t27 -70.5q0 -46 -34 -77.5t-85 -31.5q-66 0 -109.5 52.5t-43.5 131.5zM657 1128q0 101 68.5 190t177.5 132l15 -41 q-80 -44 -125 -101.5t-45 -115.5q0 -21 8 -34t20 -13q1 0 14 2t28 4t20 2q38 0 66 -29.5t28 -70.5q0 -46 -34.5 -77.5t-84.5 -31.5q-67 0 -111.5 52t-44.5 132z" />
<glyph unicode="&#x201d;" horiz-adv-x="1052" d="M150 1339q0 46 34 78.5t84 32.5q66 0 110 -52.5t44 -131.5q0 -101 -68.5 -191t-175.5 -131l-14 39q80 48 124 104.5t44 114.5q0 22 -8 34.5t-21 12.5q-2 0 -27.5 -5t-33.5 -5q-38 0 -65 29.5t-27 70.5zM647 1341q0 45 35 77t84 32q66 0 110 -52.5t44 -131.5 q0 -101 -68.5 -191t-175.5 -131l-14 39q53 30 90.5 66t57 75t19.5 78q0 47 -28 47q-2 0 -27.5 -5t-34.5 -5q-38 0 -65 29.5t-27 72.5z" />
<glyph unicode="&#x201e;" horiz-adv-x="1052" d="M150 72q0 46 33.5 78t84.5 32q66 0 110 -52.5t44 -131.5q0 -101 -68 -191t-176 -133l-14 41q80 46 124 103.5t44 115.5q0 48 -29 48q-1 0 -26.5 -5.5t-34.5 -5.5q-38 0 -65 30t-27 71zM647 74q0 44 35 76t84 32q66 0 110 -52.5t44 -131.5q0 -101 -68.5 -192t-175.5 -132 l-14 41q79 46 123 103t44 116q0 48 -28 48q-1 0 -27 -5.5t-35 -5.5q-38 0 -65 30t-27 73z" />
<glyph unicode="&#x2022;" horiz-adv-x="1366" d="M401 692q0 120 83.5 202.5t205.5 82.5q114 0 196.5 -83.5t82.5 -199.5q0 -118 -83 -201t-200 -83t-201 82.5t-84 199.5z" />
<glyph unicode="&#x2026;" horiz-adv-x="2197" d="M254 80q0 43 33 72.5t80 29.5q50 0 82 -29.5t32 -74.5q0 -46 -31.5 -75.5t-82.5 -29.5q-49 0 -81 30.5t-32 76.5zM985 80q0 43 33 72.5t80 29.5q50 0 82 -29.5t32 -74.5q0 -46 -31.5 -75.5t-82.5 -29.5q-49 0 -81 30.5t-32 76.5zM1718 80q0 43 33 72.5t80 29.5 q51 0 83 -29.5t32 -74.5q0 -46 -32 -75.5t-83 -29.5q-49 0 -81 30.5t-32 76.5z" />
<glyph unicode="&#x202f;" horiz-adv-x="357" />
<glyph unicode="&#x2039;" horiz-adv-x="503" d="M74 481l325 408h39l-211 -408l211 -403h-39z" />
<glyph unicode="&#x203a;" horiz-adv-x="503" d="M66 78l210 403l-210 408h38l326 -408l-326 -403h-38z" />
<glyph unicode="&#x205f;" horiz-adv-x="446" />
<glyph unicode="&#x20ac;" horiz-adv-x="1687" d="M82 600l22 53h97v54h-119l22 53h103q34 286 250.5 463.5t531.5 177.5q191 0 389 -72q48 -18 76 -18q18 0 37 12h33l20 -315h-41q-56 152 -194 246t-308 94q-160 0 -297.5 -75.5t-209.5 -203.5q-77 -136 -86 -309h833l-22 -53h-813q2 -23 2 -54h788l-22 -53h-760 q19 -162 106.5 -293.5t222 -206.5t287.5 -75q349 0 533 319h41q-15 -58 -59.5 -158.5t-82.5 -162.5q-18 4 -43 4q-38 0 -148 -24q-9 -2 -14 -3t-13 -2.5t-15 -3.5q-132 -29 -262 -29q-314 0 -528 178t-236 457h-121z" />
<glyph unicode="&#x2122;" horiz-adv-x="2138" d="M61 1176l21 210h31q5 -14 16 -17t57 -3h543q46 0 57.5 3t16.5 17h28l21 -210h-29q-17 87 -39 114q-12 17 -22.5 20t-56.5 3h-191v-565q0 -63 3 -79t15 -28q20 -23 80 -23h45v-30h-403v30h49q58 0 78 23q12 14 15 29.5t3 77.5v565h-188q-47 0 -59.5 -4t-26.5 -23 q-19 -32 -33 -110h-31zM954 588v30h13q60 0 78 23t22 107l29 483q0 8 1 24t1 25q0 29 -16.5 40.5t-61.5 14.5v31h199l305 -621l303 621h194v-31q-56 -5 -70 -12t-14 -33q0 -3 0.5 -6.5t0.5 -8.5t1.5 -18t2.5 -30l34 -475q3 -42 4 -57t6.5 -36t8.5 -25t16.5 -10t24.5 -6h37 h16v-30h-336v30q63 0 88 18t25 62q0 25 -4 74l-33 465l-313 -649h-35l-322 649l-31 -481q-2 -29 -2 -64q0 -37 23 -54t78 -20v-30h-273z" />
<glyph unicode="&#xe000;" horiz-adv-x="870" d="M0 0v870h870v-870h-870z" />
</font>
</defs>
</svg>
